Britten - Death in Venice (Bruno Bartoletti, Marlin Miller) (2008) [BluRay-rip]

Download Now

Britten - Death in Venice (Bruno Bartoletti, Marlin Miller) (2008) [BluRay-rip]

Britten - Death in Venice (Bruno Bartoletti, Marlin Miller) (2008) luRay-rip
Classical | BluRay-rip | AVC | MKV 1920x1080 (16:9) / 6215 kbps / 29,970 fps | 155 min | 8,43GB
Audio: English / DTS / 6ch / 48.0 KHz / 16 bits
Sub: Italian, English, French, German, Spanish

"Here is Death in Venice in high Visconti style, ravishingly designed in greys and silver blues, and inimitably Italian in the classical elegance of its settings. No other production of this opera has so successfully transported the audience through a series of fully conceived sets - starting out from a graveyard built of piles of books, along the Grand Canal, checking in to a black-and-white marble hotel, and then out on to the beach, where the games of Apollo take place under the gaze of the god's giant statue."

Cast:
Gustav von Aschenbach - Marlin Miller
Voice of Apollo - Razek-Fran├žois Bittar
Traveller and other roles - Scott Hendricks
Tadzio - Alessandro Riga
Jaschiu - Danilo Palmieri
Orchestra and Chorus of La Fenice Theatre of Venice
Conductor - Bruno Bartoletti

Video
ID : 1
Format
: AVC
Format/Info
: Advanced Video Codec
Format profile : [email protected]
Format settings, CABAC : Yes
Format settings, ReFrames : 2 frames
Codec ID
: V_MPEG4/ISO/AVC
Duration
: 2h 35mn
Bit rate
: 6 215 Kbps
Width
: 1 920 pixels
Height
: 1 080 pixels
Display aspect ratio : 16:9
Frame rate mode : Constant
Frame rate
: 29.970 fps
Color space
: YUV
Chroma subsampling

: 4:2:0
Bit depth
: 8 bits
Scan type
: Progressive
Bits/(Pixel*Frame)

: 0.100
Stream size
: 6.63 GiB (79%)
Writing library : x264 core 142
Encoding settings: cabac=1 / ref=1 / deblock=1:-1:-1 / analyse=0x3:0 / me=hex / subme=5 / psy=0 / mixed_ref=0 / me_range=16 / chroma_me=1 / trellis=0 / 8x8dct=1 / cqm=0 / deadzone=21,11 / fast_pskip=1 / chroma_qp_offset=0 / threads=8 / lookahead_threads=2 / sliced_threads=0 / nr=0 / decimate=1 / interlaced=0 / bluray_compat=0 / constrained_intra=0 / bframes=2 / b_pyramid=0 / b_adapt=1 / b_bias=0 / direct=1 / weightb=1 / open_gop=0 / weightp=0 / keyint=24 / keyint_min=13 / scenecut=40 / intra_refresh=0 / rc=abr / mbtree=0 / bitrate=6215 / ratetol=1.0 / qcomp=0.60 / qpmin=0 / qpmax=69 / qpstep=4 / ip_ratio=1.40 / pb_ratio=1.30 / aq=1:1.00
Default
: Yes
Forced
: No
Color primaries : BT.709
Transfer characteristics : BT.709
Matrix coefficients

: BT.709
Color range
: Limited

Audio
ID : 2
Format
: DTS
Format/Info
: Digital Theater Systems
Mode
: 16
Format settings, Endianness : Big
Codec ID
: A_DTS
Duration
: 2h 35mn
Bit rate mode : Constant
Bit rate
: 1 509 Kbps
Channel(s)
: 6 channels
Channel positions: Front: L C R, Side: L R, LFE
Sampling rate : 48.0 KHz
Bit depth
: 16 bits
Compression mode : Lossy
Stream size
: 1.64 GiB (19%)
Default
: Yes
Forced
: No

Text #1
ID : 3
Format
: VobSub
Codec ID
: S_VOBSUB
Codec ID/Info : The same subtitle format used on DVDs
Language
: Italian
Default
: Yes
Forced
: No

Text #2
ID : 4
Format
: VobSub
Codec ID
: S_VOBSUB
Codec ID/Info : The same subtitle format used on DVDs
Language
: English
Default
: No
Forced
: No

Text #3
ID : 5
Format
: VobSub
Codec ID
: S_VOBSUB
Codec ID/Info : The same subtitle format used on DVDs
Language
: French
Default
: No
Forced
: No

Text #4
ID : 6
Format
: VobSub
Codec ID
: S_VOBSUB
Codec ID/Info : The same subtitle format used on DVDs
Language
: German
Default
: No
Forced
: No

Text #5
ID : 7
Format
: VobSub
Codec ID
: S_VOBSUB
Codec ID/Info : The same subtitle format used on DVDs
Language
: Spanish
Default
: No
Forced
: No

Menu
00:00:00.000 : en:Chapter 01
00:02:10.130 : en:Chapter 02
00:07:56.409 : en:Chapter 03
00:13:26.405 : en:Chapter 04
00:23:04.783 : en:Chapter 05
00:29:27.665 : en:Chapter 06
00:37:42.426 : en:Chapter 07
00:41:44.268 : en:Chapter 08
00:46:59.383 : en:Chapter 09
00:53:14.658 : en:Chapter 10
00:57:53.269 : en:Chapter 11
01:05:53.749 : en:Chapter 12
01:22:42.991 : en:Chapter 13
01:25:29.657 : en:Chapter 14
01:30:07.502 : en:Chapter 15
01:35:19.046 : en:Chapter 16
01:40:05.065 : en:Chapter 17
01:45:32.726 : en:Chapter 18
01:52:52.999 : en:Chapter 19
02:05:00.292 : en:Chapter 20
02:10:58.584 : en:Chapter 21
02:17:34.145 : en:Chapter 22
02:22:25.136 : en:Chapter 23

Britten - Death in Venice (Bruno Bartoletti, Marlin Miller) (2008) [BluRay-rip]





DOWNLOAD LINKS:

Rapidgator.net:
xakox.B.D.i.V.B.B.M.M.2008.BR.part01.rar.html
xakox.B.D.i.V.B.B.M.M.2008.BR.part02.rar.html
xakox.B.D.i.V.B.B.M.M.2008.BR.part03.rar.html
xakox.B.D.i.V.B.B.M.M.2008.BR.part04.rar.html
xakox.B.D.i.V.B.B.M.M.2008.BR.part05.rar.html
xakox.B.D.i.V.B.B.M.M.2008.BR.part06.rar.html
xakox.B.D.i.V.B.B.M.M.2008.BR.part07.rar.html
xakox.B.D.i.V.B.B.M.M.2008.BR.part08.rar.html
xakox.B.D.i.V.B.B.M.M.2008.BR.part09.rar.html
xakox.B.D.i.V.B.B.M.M.2008.BR.part10.rar.html

Uploaded.net:
xakox.B.D.i.V.B.B.M.M.2008.BR.part01.rar
xakox.B.D.i.V.B.B.M.M.2008.BR.part02.rar
xakox.B.D.i.V.B.B.M.M.2008.BR.part03.rar
xakox.B.D.i.V.B.B.M.M.2008.BR.part04.rar
xakox.B.D.i.V.B.B.M.M.2008.BR.part05.rar
xakox.B.D.i.V.B.B.M.M.2008.BR.part06.rar
xakox.B.D.i.V.B.B.M.M.2008.BR.part07.rar
xakox.B.D.i.V.B.B.M.M.2008.BR.part08.rar
xakox.B.D.i.V.B.B.M.M.2008.BR.part09.rar
xakox.B.D.i.V.B.B.M.M.2008.BR.part10.rar

Nitroflare.com
xakox.B.D.i.V.B.B.M.M.2008.BR.part01.rar
xakox.B.D.i.V.B.B.M.M.2008.BR.part02.rar
xakox.B.D.i.V.B.B.M.M.2008.BR.part03.rar
xakox.B.D.i.V.B.B.M.M.2008.BR.part04.rar
xakox.B.D.i.V.B.B.M.M.2008.BR.part05.rar
xakox.B.D.i.V.B.B.M.M.2008.BR.part06.rar
xakox.B.D.i.V.B.B.M.M.2008.BR.part07.rar
xakox.B.D.i.V.B.B.M.M.2008.BR.part08.rar
xakox.B.D.i.V.B.B.M.M.2008.BR.part09.rar
xakox.B.D.i.V.B.B.M.M.2008.BR.part10.rar

Uploadable.ch:
xakox.B.D.i.V.B.B.M.M.2008.BR.part01.rar
xakox.B.D.i.V.B.B.M.M.2008.BR.part02.rar
xakox.B.D.i.V.B.B.M.M.2008.BR.part03.rar
xakox.B.D.i.V.B.B.M.M.2008.BR.part04.rar
xakox.B.D.i.V.B.B.M.M.2008.BR.part05.rar
xakox.B.D.i.V.B.B.M.M.2008.BR.part06.rar
xakox.B.D.i.V.B.B.M.M.2008.BR.part07.rar
xakox.B.D.i.V.B.B.M.M.2008.BR.part08.rar
xakox.B.D.i.V.B.B.M.M.2008.BR.part09.rar
xakox.B.D.i.V.B.B.M.M.2008.BR.part10.rar

No Password

Direct Download

Tags: Britten, Venice, Bartoletti, Marlin, Miller, BluRay

Britten - Death in Venice (Bruno Bartoletti, Marlin Miller) (2008) [BluRay-rip] Download via Hotfile Rapidshare Fileserve Megaupload & FileSonic, Britten - Death in Venice (Bruno Bartoletti, Marlin Miller) (2008) [BluRay-rip] free torrent downloads included crack, serial, keygen.


Attention!Information

Members of Guest cannot leave comments.