Art Tatum & Buddy DeFranco - The Art Tatum-Buddy DeFranco Quartet (1956) {2015 Poll Winners 24-bit Remaster}

Download Now


Art Tatum & Buddy DeFranco - The Art Tatum-Buddy DeFranco Quartet (1956) {2015 Poll Winners 24-bit Remaster}
Art Tatum & Buddy DeFranco - The Art Tatum-Buddy DeFranco Quartet (1956) {2015 Poll Winners 24-bit Remaster}
EAC rip (secure mode) | FLAC (tracks)+CUE+LOG -> 285 Mb | MP3 @320 -> 171 Mb
Full Artwork @ 600 dpi (jpg) -> 236 Mb | 5% repair rar | 24-bit remaster
© 2015 Verve / Poll Winners Records | PWR 27339
Jazz / Bop / Piano / Clarinet

"This release contains the complete original quartet session showcasing the brilliant Art Tatum with clarinet player Buddy DeFranco, plus Red Callender on bass, and Bill Douglass on drums. It was the only collaborative recording date by Tatum and DeFranco. The master takes were originally issued as The Art Tatum-Buddy DeFranco Quartet on Verve MGV-8213. For this edition, it was added all three existing alternate takes, as well as unaccompanied piano versions by Tatum of three of the album's tunes. This music constitutes one of the various pairings of Tatum with other jazz greats produced by Norman Granz in the last years of the pianist's life. Tatum was seriously ill at that time and neglected by record companies due to stylistic changes in the music industry. He would die on November 5, 1956 at the age of 47."

Art Tatum & Buddy DeFranco - The Art Tatum-Buddy DeFranco Quartet (1956) {2015 Poll Winners 24-bit Remaster}


Personnel:
ART TATUM, piano
BUDDY DeFRANCO, clarinet
RED CALLENDER, bass
BILL DOUGLASS, drums

Los Angeles, California, February 6, 1956.

BONUS TRACKS:
[9-11] From the same session, but not included on the original LP.
[12-14]: ART TATUM, piano solo. Los Angeles, December 28, 1953 (12-13) & April 22, 1954 (14) (Clef Recordings)


Art Tatum & Buddy DeFranco - The Art Tatum-Buddy DeFranco Quartet (1956) {2015 Poll Winners 24-bit Remaster}


tracklist:
01 - Deep Night
02 - This Can't Be Love
03 - Memories Of You
04 - Once In A While
05 - A Foggy Day
06 - Makin' Whoopee
07 - You're Mine You
08 - Lover Man
09 - Deep Night [alt. take] (bonus track)
10 - This Can't Be Love [alt. take] (bonus track)
11 - Once In A While [alt. take] (bonus track)
12 - This Can't Be Love (bonus track)
13 - Memories Of You (bonus track)
14 - You're Mine You (bonus track)

Exact Audio Copy V1.1 from 23. June 2015

EAC extraction logfile from 31. August 2015, 12:30

Art Tatum & Buddy DeFranco / The Art Tatum-Buddy DeFranco Quartet

Used drive : TSSTcorpCDDVDW SE-208DB Adapter: 7 ID: 0

Read mode : Secure
Utilize accurate stream : Yes
Defeat audio cache : Yes
Make use of C2 pointers : No

Read offset correction

: 6
Overread into Lead-In and Lead-Out : No
Fill up missing offset samples with silence : Yes
Delete leading and trailing silent blocks : No
Null samples used in CRC calculations : Yes
Used interface
: Installed external ASPI interface
Gap handling
: Appended to previous track

Used output format : User Defined Encoder
Selected bitrate : 1024 kBit/s
Quality : High
Add ID3 tag : No
Command line compressor : C:\Program Files (x86)\FLAC Frontend\tools\flac.exe
Additional command line options : -8 -V -T "ARTIST=%artist%" -T "TITLE=%title%" -T "ALBUM=%albumtitle%" -T "DATE=%year%" -T "TRACKNUMBER=%tracknr%" -T "TOTALTRACKS=%numtracks%" -T "GENRE=%genre%" -T "ALBUMARTIST=%albumartist%" -T "ALBUM ARTIST=%albumartist%" -T "COMMENT=EAC Secure Mode, Test & Copy, AccurateRip, FLAC -8" %source%

TOC of the extracted CD Track | Start | Length | Start sector | End sector
--1 | 0:00.00 | 5:49.63 | 0 | 26237 2 | 5:49.63 | 4:40.07 | 26238 | 47244 3 | 10:29.70 | 7:12.30 | 47245 | 79674 4 | 17:42.25 | 5:15.20 | 79675 | 103319 5 | 22:57.45 | 3:26.13 | 103320 | 118782 6 | 26:23.58 | 3:36.47 | 118783 | 135029 7 | 30:00.30 | 7:03.70 | 135030 | 166824 8 | 37:04.25 | 6:40.20 | 166825 | 196844 9 | 43:44.45 | 5:52.47 | 196845 | 223291
10 | 49:37.17 | 4:31.48 | 223292 | 243664
11 | 54:08.65 | 5:07.40 | 243665 | 266729
12 | 59:16.30 | 2:40.20 | 266730 | 278749
13 | 61:56.50 | 5:03.40 | 278750 | 301514
14 | 67:00.15 | 4:51.63 | 301515 | 323402

Track 1 Filename M:\_EAC\Art Tatum & Buddy DeFranco - The Art Tatum-Buddy DeFranco Quartet (1956) [FLAC] {2015 Poll Winners}\01 - Deep Night.wav Pre-gap length 0:00:02.00 Peak level 54.8 %
Extraction speed 1.2 X
Track quality 100.0 %
Test CRC 7A286328
Copy CRC 7A286328
Track not present in AccurateRip database
Copy OK

Track 2 Filename M:\_EAC\Art Tatum & Buddy DeFranco - The Art Tatum-Buddy DeFranco Quartet (1956) [FLAC] {2015 Poll Winners}\02 - This Can't Be Love.wav Peak level 64.7 %
Extraction speed 1.3 X
Track quality 100.0 %
Test CRC EFCB9544
Copy CRC EFCB9544
Track not present in AccurateRip database
Copy OK

Track 3 Filename M:\_EAC\Art Tatum & Buddy DeFranco - The Art Tatum-Buddy DeFranco Quartet (1956) [FLAC] {2015 Poll Winners}\03 - Memories Of You.wav Peak level 47.5 %
Extraction speed 1.4 X
Track quality 100.0 %
Test CRC B45F9EFE
Copy CRC B45F9EFE
Track not present in AccurateRip database
Copy OK

Track 4 Filename M:\_EAC\Art Tatum & Buddy DeFranco - The Art Tatum-Buddy DeFranco Quartet (1956) [FLAC] {2015 Poll Winners}\04 - Once In A While.wav Peak level 58.4 %
Extraction speed 0.3 X
Track quality 99.3 %
Test CRC 7F83661A
Copy CRC 6718858D
Track not present in AccurateRip database
Copy OK

Track 5 Filename M:\_EAC\Art Tatum & Buddy DeFranco - The Art Tatum-Buddy DeFranco Quartet (1956) [FLAC] {2015 Poll Winners}\05 - A Foggy Day.wav Peak level 46.2 %
Extraction speed 1.2 X
Track quality 99.9 %
Test CRC 81C158B8
Copy CRC F0871141
Track not present in AccurateRip database
Copy OK

Track 6 Filename M:\_EAC\Art Tatum & Buddy DeFranco - The Art Tatum-Buddy DeFranco Quartet (1956) [FLAC] {2015 Poll Winners}\06 - Makin' Whoopee.wav Peak level 51.5 %
Extraction speed 0.9 X
Track quality 99.8 %
Test CRC CD8FDF0C
Copy CRC CD8FDF0C
Track not present in AccurateRip database
Copy OK

Track 7 Filename M:\_EAC\Art Tatum & Buddy DeFranco - The Art Tatum-Buddy DeFranco Quartet (1956) [FLAC] {2015 Poll Winners}\07 - You're Mine You.wav Peak level 49.4 %
Extraction speed 1.6 X
Track quality 99.9 %
Test CRC A58F18A6
Copy CRC A58F18A6
Track not present in AccurateRip database
Copy OK

Track 8 Filename M:\_EAC\Art Tatum & Buddy DeFranco - The Art Tatum-Buddy DeFranco Quartet (1956) [FLAC] {2015 Poll Winners}\08 - Lover Man.wav Peak level 54.2 %
Extraction speed 1.8 X
Track quality 100.0 %
Test CRC 19799D59
Copy CRC 19799D59
Track not present in AccurateRip database
Copy OK

Track 9 Filename M:\_EAC\Art Tatum & Buddy DeFranco - The Art Tatum-Buddy DeFranco Quartet (1956) [FLAC] {2015 Poll Winners}\09 - Deep Night [alt. take] (bonus track).wav Peak level 58.6 %
Extraction speed 1.9 X
Track quality 100.0 %
Test CRC B71E2CF8
Copy CRC B71E2CF8
Track not present in AccurateRip database
Copy OK

Track 10 Filename M:\_EAC\Art Tatum & Buddy DeFranco - The Art Tatum-Buddy DeFranco Quartet (1956) [FLAC] {2015 Poll Winners}\10 - This Can't Be Love [alt. take] (bonus track).wav Peak level 65.7 %
Extraction speed 1.9 X
Track quality 100.0 %
Test CRC C6BF58D2
Copy CRC C6BF58D2
Track not present in AccurateRip database
Copy OK

Track 11 Filename M:\_EAC\Art Tatum & Buddy DeFranco - The Art Tatum-Buddy DeFranco Quartet (1956) [FLAC] {2015 Poll Winners}\11 - Once In A While [alt. take] (bonus track).wav Peak level 50.3 %
Extraction speed 1.9 X
Track quality 100.0 %
Test CRC C91A9C92
Copy CRC C91A9C92
Track not present in AccurateRip database
Copy OK

Track 12 Filename M:\_EAC\Art Tatum & Buddy DeFranco - The Art Tatum-Buddy DeFranco Quartet (1956) [FLAC] {2015 Poll Winners}\12 - This Can't Be Love (bonus track).wav Peak level 98.5 %
Extraction speed 1.7 X
Track quality 100.0 %
Test CRC 936D7B75
Copy CRC 936D7B75
Track not present in AccurateRip database
Copy OK

Track 13 Filename M:\_EAC\Art Tatum & Buddy DeFranco - The Art Tatum-Buddy DeFranco Quartet (1956) [FLAC] {2015 Poll Winners}\13 - Memories Of You (bonus track).wav Peak level 78.4 %
Extraction speed 2.0 X
Track quality 100.0 %
Test CRC 262D2C4D
Copy CRC 262D2C4D
Track not present in AccurateRip database
Copy OK

Track 14 Filename M:\_EAC\Art Tatum & Buddy DeFranco - The Art Tatum-Buddy DeFranco Quartet (1956) [FLAC] {2015 Poll Winners}\14 - You're Mine You (bonus track).wav Peak level 62.2 %
Extraction speed 1.8 X
Track quality 99.9 %
Test CRC 7DF2CF1A
Copy CRC 7DF2CF1A
Track not present in AccurateRip database
Copy OK

None of the tracks are present in the AccurateRip database

No errors occurred

End of status report

==== Log checksum 27955832D6B72F75B3B520AC54ECD47C78676D11E74DD9B549DF7CEABDB28EA4 ====

Art Tatum & Buddy DeFranco - The Art Tatum-Buddy DeFranco Quartet (1956) {2015 Poll Winners 24-bit Remaster}

Art Tatum & Buddy DeFranco - The Art Tatum-Buddy DeFranco Quartet (1956) {2015 Poll Winners 24-bit Remaster}


thanks Mel for Artwork...
DOWNLOAD LINKS:
Buy Premium To Support Me & Get Resumable Support & Max Speed


Links are Interchangeable - No Password - Single Extraction

Direct Download

Tags: DeFranco, DeFranco, Quartet, Winners, Remaster

Art Tatum & Buddy DeFranco - The Art Tatum-Buddy DeFranco Quartet (1956) {2015 Poll Winners 24-bit Remaster} Download via Hotfile Rapidshare Fileserve Megaupload & FileSonic, Art Tatum & Buddy DeFranco - The Art Tatum-Buddy DeFranco Quartet (1956) {2015 Poll Winners 24-bit Remaster} free torrent downloads included crack, serial, keygen.


Attention!Information

Members of Guest cannot leave comments.