The Angels - Dark Room (1980)

Download Now

The Angels - Dark Room (1980)

The Angels - Dark Room (1980)
EAC | Flac(Image) + Cue + Log & MP3 CBR 320Kbps
1998 | Shock, ANGELS123 | ~ 268 or 106 Mb | Scans Included
Hard Rock / Classic Rock

"Originally released in 1980, Dark Room was the fourth album from Australian rock band The Angels. Sometimes known as Angel City or The Angels From Angel City, The Angels were one of the most consistent (and, sadly, consistently overlooked) bands in the Australian rock scene. They had a more melodic sound than AC/DC, and were very influential on American bands like Great White and even Guns n' Roses..."


Tracklist:

01. No Secrets (4:18)
02. Poor Baby (4:04)
03. Wasted Sleepless Nights / Dark Room (6:09)
04. Face The Day (6:10)
05. Night Comes Early (4:14)
06. Alexander (3:29)
07. The Moment (4:20)
08. I'm Scared (3:49)
09. Devil's Gate (5:32)

Exact Audio Copy V0.99 prebeta 5 from 4. May 2009

EAC extraction logfile from 13. June 2009, 14:19

The Angels / Dark Room

Used drive : HL-DT-STDVDRAM GMA-4082N Adapter: 0 ID: 0

Read mode : Secure
Utilize accurate stream : Yes
Defeat audio cache : Yes
Make use of C2 pointers : No

Read offset correction

: 667
Overread into Lead-In and Lead-Out : No
Fill up missing offset samples with silence : Yes
Delete leading and trailing silent blocks : No
Null samples used in CRC calculations : Yes
Used interface
: Installed external ASPI interface
Gap handling
: Appended to previous track

Used output format : User Defined Encoder
Selected bitrate : 128 kBit/s
Quality : High
Add ID3 tag : No
Command line compressor : C:\Program Files\Exact Audio Copy\Flac\flac.exe
Additional command line options : -V -8 -T "artist=%a" -T "title=%t" -T "album=%g" -T "date=%y" -T "tracknumber=%n" -T "genre=%m" %s

TOC of the extracted CD Track | Start | Length | Start sector | End sector
--1 | 0:00.00 | 4:18.02 | 0 | 19351 2 | 4:18.02 | 4:04.25 | 19352 | 37676 3 | 8:22.27 | 6:09.45 | 37677 | 65396 4 | 14:31.72 | 6:10.03 | 65397 | 93149 5 | 20:42.00 | 4:13.70 | 93150 | 112194 6 | 24:55.70 | 3:29.07 | 112195 | 127876 7 | 28:25.02 | 4:19.13 | 127877 | 147314 8 | 32:44.15 | 3:49.07 | 147315 | 164496 9 | 36:33.22 | 5:33.00 | 164497 | 189471

Track 1 Filename C:\EACrips\FLAC\01 - No Secrets.wav Pre-gap length 0:00:02.00 Peak level 99.2 %
Track quality 99.9 %
Test CRC 38D990F6
Copy CRC 38D990F6
Cannot be verified as accurate (confidence 2) [2E76EED8], AccurateRip returned [815A6078]
Copy OK

Track 2 Filename C:\EACrips\FLAC\02 - Poor Baby.wav Peak level 99.7 %
Track quality 100.0 %
Test CRC A985DB62
Copy CRC A985DB62
Cannot be verified as accurate (confidence 2) [AE13B75E], AccurateRip returned [4923CB0A]
Copy OK

Track 3 Filename C:\EACrips\FLAC\03 - Wasted Sleepless Nights,Dark Room.wav Pre-gap length 0:00:01.46 Peak level 90.3 %
Track quality 99.9 %
Test CRC A3AFD60E
Copy CRC A3AFD60E
Cannot be verified as accurate (confidence 2) [C8E0850F], AccurateRip returned [4D788F64]
Copy OK

Track 4 Filename C:\EACrips\FLAC\04 - Face The Day.wav Peak level 94.6 %
Track quality 100.0 %
Test CRC CB078B09
Copy CRC CB078B09
Cannot be verified as accurate (confidence 2) [7595E287], AccurateRip returned [787D5E4F]
Copy OK

Track 5 Filename C:\EACrips\FLAC\05 - Night Comes Early.wav Pre-gap length 0:00:02.24 Peak level 100.0 %
Track quality 100.0 %
Test CRC 3D5360AE
Copy CRC 3D5360AE
Cannot be verified as accurate (confidence 2) [9B97FA34], AccurateRip returned [45E8C83D]
Copy OK

Track 6 Filename C:\EACrips\FLAC\06 - Alexander.wav Peak level 91.7 %
Track quality 100.0 %
Test CRC 2DEA62AE
Copy CRC 2DEA62AE
Cannot be verified as accurate (confidence 2) [323A458D], AccurateRip returned [1958F22B]
Copy OK

Track 7 Filename C:\EACrips\FLAC\07 - The Moment.wav Peak level 74.4 %
Track quality 100.0 %
Test CRC 56CCEDEF
Copy CRC 56CCEDEF
Cannot be verified as accurate (confidence 2) [FB8C87FE], AccurateRip returned [426B6E35]
Copy OK

Track 8 Filename C:\EACrips\FLAC\08 - I'm Scared.wav Pre-gap length 0:00:01.33 Peak level 100.0 %
Track quality 100.0 %
Test CRC 7A63922F
Copy CRC 7A63922F
Cannot be verified as accurate (confidence 2) [F4CF570B], AccurateRip returned [ADD6074A]
Copy OK

Track 9 Filename C:\EACrips\FLAC\09 - Devil's Gate.wav Peak level 84.7 %
Track quality 100.0 %
Test CRC 1783C5A8
Copy CRC 1783C5A8
Cannot be verified as accurate (confidence 2) [F0A03F4C], AccurateRip returned [568001D3]
Copy OK

No tracks could be verified as accurate
You may have a different pressing from the one(s) in the database

No errors occurred

End of status report

foobar2000 1.2.9 / Dynamic Range Meter 1.1.1
log date: 2015-09-10 13:33:36

Analyzed: The Angels / Dark Room

DR Peak RMS Duration Track

DR14 -0.07 dB -16.65 dB 4:18 01-No Secrets
DR13 -0.02 dB -16.38 dB 4:04 02-Poor Baby
DR14 -0.88 dB -17.36 dB 6:10 03-Wasted Sleepless Nights/Dark Room
DR13 -0.48 dB -17.87 dB 6:10 04-Face The Day
DR16 0.00 dB -18.66 dB 4:14 05-Night Comes Early
DR13 -0.75 dB -16.51 dB 3:29 06-Alexander
DR14 -2.57 dB -19.33 dB 4:19 07-The Moment
DR14 0.00 dB -17.74 dB 3:49 08-I'm Scared
DR13 -1.44 dB -16.75 dB 5:33 09-Devil's Gate

Number of tracks: 9
Official DR value: DR14

Samplerate: 44100 Hz
Channels: 2
Bits per sample: 16
Bitrate: 848 kbps
Codec: FLAC

[CUETools log; Date: 10.09.2015 13:33:27; Version: 2.1.4]
[CTDB TOCID: cRv1SLUQ0KS5lUDGXD1s5VKcYXc-] found.
Track | CTDB Status
1 | (4/4) Accurately ripped
2 | (4/4) Accurately ripped
3 | (4/4) Accurately ripped
4 | (4/4) Accurately ripped
5 | (1/4) Differs in 12 samples @00:51:34-00:51:35, or (3/4) differs in 27 samples @00:17:34,00:51:34-00:51:35
6 | (4/4) Accurately ripped
7 | (4/4) Accurately ripped
8 | (4/4) Accurately ripped
9 | (4/4) Accurately ripped
[AccurateRip ID: 000e9a04-006ad408-7b09de09] found.
Track [ CRC | V2 ] Status
01 [2e76eed8|d6e19633] (0+0/5) No match
02 [ae13b75e|d121c81b] (0+0/3) No match
03 [c8e0850f|8f8dbd27] (0+0/3) No match
04 [7595e287|b25ee365] (0+0/7) No match
05 [9b97fa34|29173817] (0+0/3) No match
06 [323a458d|edf4e405] (0+0/3) No match
07 [fb8c87fe|671eb6ca] (0+0/3) No match
08 [f4cf570b|42d5c645] (0+0/3) No match
09 [f0a03f4c|e84a7b30] (0+0/7) No match
Offsetted by 256:
01 [900920de] (0/5) No match
02 [504c7a09] (0/3) No match
03 [fe0774dd] (0/3) No match
04 [ab6ae50f] (0/7) No match (V2 was not tested)
05 [21e1c1ee] (0/3) No match
06 [75b523e4] (0/3) No match
07 [c3143276] (0/3) No match
08 [2cc3eeec] (0/3) No match
09 [91df7691] (0/7) No match (V2 was not tested)
Offsetted by 1106:
01 [815a6078] (3/5) Accurately ripped
02 [4923cb0a] (3/3) Accurately ripped
03 [4d788f64] (3/3) Accurately ripped
04 [787d5e4f] (3/7) Accurately ripped
05 [23a30826] (0/3) No match (V2 was not tested)
06 [1958f22b] (3/3) Accurately ripped
07 [426b6e35] (3/3) Accurately ripped
08 [add6074a] (3/3) Accurately ripped
09 [568001d3] (3/7) Accurately ripped

Track Peak [ CRC32 ] [W/O NULL] [ LOG ]
-- 100,0 [18070DB9] E3C62C5
01 99,2 [38D990F6] [758CF3AE] CRC32
02 99,7 [A985DB62] [9B89AFED] CRC32
03 90,3 [A3AFD60E] [85DEB0B9] CRC32
04 94,6 [CB078B09] [73C6575A] CRC32
05 100,0 [3D5360AE] [D8411726] CRC32
06 91,7 [2DEA62AE] 71CA1DF CRC32
07 74,4 [56CCEDEF] [7EAE194C] CRC32
08 100,0 [7A63922F] [47155815] CRC32
09 84,7 [1783C5A8] [7B0D00D2] CRC32

The Angels - Dark Room (1980)

Download Links:
(Premium Recommended)


All above links are interchangable. No password

Direct Download

Tags: Angels

The Angels - Dark Room (1980) Download via Hotfile Rapidshare Fileserve Megaupload & FileSonic, The Angels - Dark Room (1980) free torrent downloads included crack, serial, keygen.


Attention!Information

Members of Guest cannot leave comments.