Pixies - Wave Of Mutilation: Best Of Pixies (2004)

Download Now

Pixies - Wave Of Mutilation: Best Of Pixies (2004)

Pixies - Wave Of Mutilation: Best Of Pixies (2004)
EAC | FLAC | Tracks (Cue&Log) ~ 472 Mb (incl 5%) | Mp3 (CBR320) ~ 160 Mb (incl 5%) | Scans ~ 146 Mb
Genre: Alternative Rock, College Rock | Label: 4AD | # CAD 2406CD | Time: 01:06:44

"During their six years together, The Pixies released five albums to fan, peer, and critical acclaim. This new 23-track best of CD runs almost chronologically and expands on the previous comp, "Death To The Pixies" with a couple B-sides, the live favorite "Into The White", and a cover of Neil Young's "Winterlong". Packaging includes a deluxe full-color 16-page booklet."

"4AD tries, tries again with Wave of Mutilation: The Best of the Pixies, the second Pixies best-of they've released since the band broke up in 1992 and the companion piece to the long-awaited, simultaneously released DVD Pixies. Lessons have been learned from 1997's half-baked Death to the Pixies: this compilation's track listing is in more or less chronological order (although Surfer Rosa's "Where Is My Mind?" pops up in the middle of the album, after a string of Doolittle tracks), which helps the flow of the collection; since each of the Pixies' albums had its own distinctive feel, the cut'n'paste approach of the previous best-of didn't always serve the songs it collected. More importantly, Wave of Mutilation boasts 23 songs, as opposed to the 17 on the best-of disc on Death to the Pixies. While, theoretically, 23 tracks should be enough to capture most, if not all, of the band's definitive moments, that's not quite the case here. The collection does a good job of compiling the band's singles, two excellent B-sides ("Into the White" and "Winterlong"), and many of their key album tracks, but those are so numerous that, for the second time, more than a few of the Pixies' best songs have been left off of their best-of album. The picks from Doolittle are more or less perfect (although including the wonderfully creepy "I Bleed" certainly would've earned some extra credit), but several near-essential songs from each of their other albums are missing in action. Surfer Rosa's "Cactus" and "River Euphrates are at the top of that list. Come On Pilgrim's "I've Been Tired" and "Levitate Me" are missed nearly as much, even though including them would bring the total songs from the eight-song mini-album that appear on Wave of Mutilation to five (making a case for Come On Pilgrim to be considered the Pixies' most consistent -- if not best -- work).

Not coincidentally, the albums that get the shortest shrift on the collection, Bossanova and Trompe le Monde, have also been downplayed in the set lists of the Pixies' reunion concerts. Yes, those two albums aren't quite as strong or immediate as what preceded them. And yes, "Velouria," "Allison," and "Dig for Fire," and "U-Mass," "Alec Eiffel," and "Planet of Sound" are good selections from Bossanova and Trompe le Monde. However, the best moments from these albums (that don't already appear on the compilation) reflect the atmospheric sound that made them so unique in the Pixies' catalog. Bossanova's "The Happening" or "All Over the World" would've been apt nods to the band's sci-fi fetish, while "Letter to Memphis," "The Sad Punk," "Motorway to Roswell," or the title track from Trompe le Monde also would've worked well on the collection. One final, more minor flaw is the collection's bright, shiny artwork, which recalls the mid-'90s work that the design studio v23 did for 4AD artists like Belly and the Breeders. It's attractive, but a little faceless and lacking the dramatic surrealism of Simon Larbalastier's photos, which clothed the Pixies' albums in what seemed like stills from the dreams and nightmares unspooling in the band's songs. In some ways, for die-hard Pixies fans it's easier to miss what isn't here than to appreciate what is; then again, fans can (and probably have) made their own master mixes of what they consider the Pixies' greatest hits. Even though the best way to experience the band is still devouring each of their albums, Wave of Mutilation: The Best of the Pixies is intended as a primer to their work, and -- fannish nitpicking aside -- it's a far better overview than what was available before.

Review by Heather Phares, Allmusic.com
"




Tracklist:

01. Bone Machine (03:03)
02. Nimrod's Son (02:16)
03. The Holiday Song (02:15)
04. Caribou (03:14)
05. Broken Face (01:29)
06. Gigantic (Single Version) (03:13)
07. Vamos (04:18)
08. Hey (03:28)
09. Monkey Gone To Heaven (02:55)
10. Debaser (02:51)
11. Gouge Away (02:42)
12. Wave Of Mutilation (02:03)
13. Here Comes Your Man (03:21)
14. Tame (01:56)
15. Where Is My Mind (03:49)
16. Into The White (04:39)
17. Velouria (03:40)
18. Allison (01:17)
19. Dig For Fire (03:02)
20. U-Mass (03:00)
21. Alec Eiffel (02:47)
22. Planet Of Sound (02:06)
23. Winterlong (03:08)


Exact Audio Copy V1.0 beta 4 from 7. December 2014

EAC extraction logfile from 26. July 2015, 9:29

Pixies / Wave Of Mutilation (Best Of Pixies)

Used drive : TSSTcorpCDDVDW SH-224DB Adapter: 1 ID: 0

Read mode : Secure
Utilize accurate stream : Yes
Defeat audio cache : Yes
Make use of C2 pointers : No

Read offset correction

: 6
Overread into Lead-In and Lead-Out : No
Fill up missing offset samples with silence : Yes
Delete leading and trailing silent blocks : No
Null samples used in CRC calculations : Yes
Used interface
: Native Win32 interface for Win NT & 2000
Gap handling
: Appended to previous track

Used output format : User Defined Encoder
Selected bitrate : 896 kBit/s
Quality : High
Add ID3 tag : No
Command line compressor : C:\Program Files\Exact Audio Copy\Flac\flac.exe
Additional command line options : -6 -V -T "ARTIST=%artist%" -T "TITLE=%title%" -T "ALBUM=%albumtitle%" -T "DATE=%year%" -T "TRACKNUMBER=%tracknr%" -T "GENRE=%genre%" -T "COMMENT=%comment%" %source% -o %dest%

TOC of the extracted CD Track | Start | Length | Start sector | End sector
--1 | 0:00.00 | 3:03.20 | 0 | 13744 2 | 3:03.20 | 2:16.32 | 13745 | 23976 3 | 5:19.52 | 2:15.02 | 23977 | 34103 4 | 7:34.54 | 3:14.17 | 34104 | 48670 5 | 10:48.71 | 1:29.59 | 48671 | 55404 6 | 12:18.55 | 3:13.43 | 55405 | 69922 7 | 15:32.23 | 4:18.30 | 69923 | 89302 8 | 19:50.53 | 3:28.30 | 89303 | 104932 9 | 23:19.08 | 2:55.27 | 104933 | 118084
10 | 26:14.35 | 2:51.58 | 118085 | 130967
11 | 29:06.18 | 2:42.41 | 130968 | 143158
12 | 31:48.59 | 2:03.70 | 143159 | 152453
13 | 33:52.54 | 3:21.15 | 152454 | 167543
14 | 37:13.69 | 1:56.29 | 167544 | 176272
15 | 39:10.23 | 3:49.18 | 176273 | 193465
16 | 42:59.41 | 4:39.71 | 193466 | 214461
17 | 47:39.37 | 3:40.29 | 214462 | 230990
18 | 51:19.66 | 1:17.50 | 230991 | 236815
19 | 52:37.41 | 3:02.56 | 236816 | 250521
20 | 55:40.22 | 3:00.67 | 250522 | 264088
21 | 58:41.14 | 2:47.19 | 264089 | 276632
22 | 61:28.33 | 2:06.41 | 276633 | 286123
23 | 63:34.74 | 3:08.50 | 286124 | 300273

Track 1 Filename C:\New Folder\01 - Bone Machine.wav Pre-gap length 0:00:02.00 Peak level 90.5 %
Extraction speed 1.5 X
Track quality 99.9 %
Test CRC 1889D6F7
Copy CRC 1889D6F7
Accurately ripped (confidence 93) [936DFC6E] (AR v2)
Copy OK

Track 2 Filename C:\New Folder\02 - Nimrod's Son.wav Peak level 79.8 %
Extraction speed 1.5 X
Track quality 99.9 %
Test CRC 32BF6591
Copy CRC 32BF6591
Accurately ripped (confidence 92) [99957A18] (AR v2)
Copy OK

Track 3 Filename C:\New Folder\03 - The Holiday Song.wav Peak level 89.0 %
Extraction speed 1.9 X
Track quality 100.0 %
Test CRC D59B5DEC
Copy CRC D59B5DEC
Accurately ripped (confidence 93) [C2B4A751] (AR v2)
Copy OK

Track 4 Filename C:\New Folder\04 - Caribou.wav Pre-gap length 0:00:00.14 Peak level 97.1 %
Extraction speed 1.8 X
Track quality 99.9 %
Test CRC FA6172EC
Copy CRC FA6172EC
Accurately ripped (confidence 92) [57DC722D] (AR v2)
Copy OK

Track 5 Filename C:\New Folder\05 - Broken Face.wav Peak level 82.7 %
Extraction speed 1.9 X
Track quality 100.0 %
Test CRC F0BD000D
Copy CRC F0BD000D
Accurately ripped (confidence 92) [9CFAD227] (AR v2)
Copy OK

Track 6 Filename C:\New Folder\06 - Gigantic (Single Version).wav Peak level 96.4 %
Extraction speed 2.3 X
Track quality 100.0 %
Test CRC CDF9DFE4
Copy CRC CDF9DFE4
Accurately ripped (confidence 91) [922528CF] (AR v2)
Copy OK

Track 7 Filename C:\New Folder\07 - Vamos.wav Pre-gap length 0:00:00.01 Peak level 93.7 %
Extraction speed 2.6 X
Track quality 100.0 %
Test CRC 6312EBFA
Copy CRC 6312EBFA
Accurately ripped (confidence 90) [0B161583] (AR v2)
Copy OK

Track 8 Filename C:\New Folder\08 - Hey.wav Peak level 94.2 %
Extraction speed 2.6 X
Track quality 100.0 %
Test CRC E889A29A
Copy CRC E889A29A
Accurately ripped (confidence 91) [A4DC2D41] (AR v2)
Copy OK

Track 9 Filename C:\New Folder\09 - Monkey Gone To Heaven.wav Peak level 83.9 %
Extraction speed 2.6 X
Track quality 100.0 %
Test CRC 110B82BA
Copy CRC 110B82BA
Accurately ripped (confidence 91) [1482CBC8] (AR v2)
Copy OK

Track 10 Filename C:\New Folder\10 - Debaser.wav Peak level 94.2 %
Extraction speed 2.7 X
Track quality 100.0 %
Test CRC 3D685109
Copy CRC 3D685109
Accurately ripped (confidence 91) [8727354B] (AR v2)
Copy OK

Track 11 Filename C:\New Folder\11 - Gouge Away.wav Peak level 92.6 %
Extraction speed 2.7 X
Track quality 100.0 %
Test CRC DF7F4D8B
Copy CRC DF7F4D8B
Accurately ripped (confidence 91) [94F73464] (AR v2)
Copy OK

Track 12 Filename C:\New Folder\12 - Wave Of Mutilation.wav Peak level 83.9 %
Extraction speed 2.6 X
Track quality 100.0 %
Test CRC 1D2CF63F
Copy CRC 1D2CF63F
Accurately ripped (confidence 92) [C94A1FF6] (AR v2)
Copy OK

Track 13 Filename C:\New Folder\13 - Here Comes Your Man.wav Peak level 83.9 %
Extraction speed 2.3 X
Track quality 99.9 %
Test CRC 7B5563C1
Copy CRC 7B5563C1
Accurately ripped (confidence 91) [ED226E08] (AR v2)
Copy OK

Track 14 Filename C:\New Folder\14 - Tame.wav Peak level 83.9 %
Extraction speed 2.7 X
Track quality 100.0 %
Test CRC 8EDFBCEC
Copy CRC 8EDFBCEC
Accurately ripped (confidence 91) [44C725BF] (AR v2)
Copy OK

Track 15 Filename C:\New Folder\15 - Where Is My Mind.wav Pre-gap length 0:00:00.45 Peak level 95.9 %
Extraction speed 3.2 X
Track quality 100.0 %
Test CRC 309732CF
Copy CRC 309732CF
Accurately ripped (confidence 92) [1FF823CA] (AR v2)
Copy OK

Track 16 Filename C:\New Folder\16 - Into The White.wav Peak level 64.4 %
Extraction speed 3.4 X
Track quality 100.0 %
Test CRC 8BFE4D0A
Copy CRC 8BFE4D0A
Accurately ripped (confidence 91) [A16111B9] (AR v2)
Copy OK

Track 17 Filename C:\New Folder\17 - Velouria.wav Peak level 94.1 %
Extraction speed 3.4 X
Track quality 100.0 %
Test CRC BB971898
Copy CRC BB971898
Accurately ripped (confidence 93) [8656133B] (AR v2)
Copy OK

Track 18 Filename C:\New Folder\18 - Allison.wav Peak level 94.2 %
Extraction speed 1.5 X
Track quality 99.8 %
Test CRC 6E86924A
Copy CRC 6E86924A
Accurately ripped (confidence 92) [FC42025C] (AR v2)
Copy OK

Track 19 Filename C:\New Folder\19 - Dig For Fire.wav Peak level 93.8 %
Extraction speed 3.4 X
Track quality 100.0 %
Test CRC C54D267E
Copy CRC C54D267E
Accurately ripped (confidence 92) [CA39625E] (AR v2)
Copy OK

Track 20 Filename C:\New Folder\20 - U-Mass.wav Pre-gap length 0:00:00.10 Peak level 83.5 %
Extraction speed 2.5 X
Track quality 99.9 %
Test CRC 130DDF72
Copy CRC 130DDF72
Accurately ripped (confidence 90) [DA469C19] (AR v2)
Copy OK

Track 21 Filename C:\New Folder\21 - Alec Eiffel.wav Pre-gap length 0:00:00.04 Peak level 83.5 %
Extraction speed 3.4 X
Track quality 100.0 %
Test CRC A571ECF4
Copy CRC A571ECF4
Accurately ripped (confidence 92) [765FB530] (AR v2)
Copy OK

Track 22 Filename C:\New Folder\22 - Planet Of Sound.wav Peak level 83.5 %
Extraction speed 3.3 X
Track quality 100.0 %
Test CRC 7BC7F68D
Copy CRC 7BC7F68D
Accurately ripped (confidence 90) [C4E6B1B1] (AR v2)
Copy OK

Track 23 Filename C:\New Folder\23 - Winterlong.wav Pre-gap length 0:00:00.15 Peak level 93.7 %
Extraction speed 3.6 X
Track quality 100.0 %
Test CRC 2CCF6BE9
Copy CRC 2CCF6BE9
Accurately ripped (confidence 91) [17911DFE] (AR v2)
Copy OK

All tracks accurately ripped

No errors occurred

End of status report

- CUETools DB Plugin V2.1.4

[CTDB TOCID: cr2gvzjYoAUL95pnPsJqnarHs7w-] found
Submit result: cr2gvzjYoAUL95pnPsJqnarHs7w- has been confirmed
Track | CTDB Status
1 | (81/81) Accurately ripped
2 | (81/81) Accurately ripped
3 | (81/81) Accurately ripped
4 | (81/81) Accurately ripped
5 | (81/81) Accurately ripped
6 | (81/81) Accurately ripped
7 | (81/81) Accurately ripped
8 | (81/81) Accurately ripped
9 | (81/81) Accurately ripped
10 | (80/81) Accurately ripped
11 | (81/81) Accurately ripped
12 | (81/81) Accurately ripped
13 | (81/81) Accurately ripped
14 | (81/81) Accurately ripped
15 | (81/81) Accurately ripped
16 | (81/81) Accurately ripped
17 | (81/81) Accurately ripped
18 | (81/81) Accurately ripped
19 | (80/81) Accurately ripped
20 | (79/81) Accurately ripped
21 | (81/81) Accurately ripped
22 | (81/81) Accurately ripped
23 | (80/81) Accurately ripped

==== Log checksum 85C6CCB17261D3E477EE491334AA5904BCC3F66D6FEB24D8F4212F6F2B6FB37B ====

foobar2000 1.2 / Dynamic Range Meter 1.1.1
log date: 2015-09-13 14:51:52

Analyzed: Pixies / Wave Of Mutilation (Best Of Pixies)

DR Peak RMS Duration Track

DR13 -0.86 dB -15.42 dB 3:03 01-Bone Machine
DR12 -1.95 dB -15.89 dB 2:16 02-Nimrod's Son
DR12 -1.00 dB -14.90 dB 2:15 03-The Holiday Song
DR11 -0.25 dB -14.09 dB 3:14 04-Caribou
DR9 -1.65 dB -13.28 dB 1:30 05-Broken Face
DR12 -0.31 dB -15.61 dB 3:14 06-Gigantic (Single Version)
DR13 -0.56 dB -16.03 dB 4:18 07-Vamos
DR12 -0.52 dB -14.58 dB 3:28 08-Hey
DR11 -1.52 dB -14.28 dB 2:55 09-Monkey Gone To Heaven
DR11 -0.52 dB -12.87 dB 2:52 10-Debaser
DR11 -0.66 dB -14.23 dB 2:43 11-Gouge Away
DR12 -1.52 dB -14.79 dB 2:04 12-Wave Of Mutilation
DR11 -1.52 dB -14.39 dB 3:21 13-Here Comes Your Man
DR11 -1.52 dB -15.36 dB 1:56 14-Tame
DR12 -0.36 dB -15.68 dB 3:49 15-Where Is My Mind
DR9 -3.82 dB -14.70 dB 4:40 16-Into The White
DR12 -0.52 dB -13.83 dB 3:40 17-Velouria
DR11 -0.52 dB -13.21 dB 1:18 18-Allison
DR13 -0.55 dB -16.21 dB 3:03 19-Dig For Fire
DR11 -1.56 dB -14.38 dB 3:01 20-U-Mass
DR11 -1.56 dB -14.48 dB 2:47 21-Alec Eiffel
DR10 -1.56 dB -14.13 dB 2:07 22-Planet Of Sound
DR13 -0.56 dB -15.76 dB 3:09 23-Winterlong

Number of tracks: 23
Official DR value: DR12

Samplerate: 44100 Hz
Channels: 2
Bits per sample: 16
Bitrate: 909 kbps
Codec: FLAC

Pixies - Wave Of Mutilation: Best Of Pixies (2004)

Pixies - Wave Of Mutilation: Best Of Pixies (2004)

All thanks to original releaser - alekow
Password: designol

Download links:
(Buy premium account via my links to have best speed and resumable ability)


Interchangeable links - No Pass

Direct Download

Tags: Pixies, Mutilation, Pixies

Pixies - Wave Of Mutilation: Best Of Pixies (2004) Download via Hotfile Rapidshare Fileserve Megaupload & FileSonic, Pixies - Wave Of Mutilation: Best Of Pixies (2004) free torrent downloads included crack, serial, keygen.


Attention!Information

Members of Guest cannot leave comments.