Polyphony - Without Introduction (1971) [Reissue 2011]

Download Now

Polyphony - Without Introduction (1971) [Reissue 2011]

Polyphony - Without Introduction (1971) [Reissue 2011]
EAC Rip | FLAC (tracks+.cue+log) - 265 MB | MP3 CBR 320 kbps (LAME 3.93) - 87 MB | Covers - 12 MB
Genre: Progressive/Psychedelic Rock | RAR 3% Rec. | Label: Gear Fab Records (GF-251)

"Polyphony was a short-lived US outfit active in the early 70's. The band, consisting of Martin Ruddy (bass, vocals), Christopher Spong (drums), Craig Massey (vocals, organ, moog), Glenn Howard (vocals, guitars) and Chatty Cooper (percussion), recorded the album "Without Introduction" which was released in 1971. Polyphony comes close fusing Hendrix's psychedelic guitar style with ELP's take on Hammond-based symphonic progressive rock."

Tracklist:
01. Juggernaut
02. 40 Second Thing In 39 Seconds
3. Ariel's Flight
a) Gordons Of The Glade
b) The Oneirocritic Man
c) Gift Of The Frog Prince
04. Crimson Dagger

Total time: 37:36

Exact Audio Copy V1.0 beta 3 from 29. August 2011

EAC extraction logfile from 11. July 2015, 22:52

Polyphony / Without Introduction

Used drive : _NEC DVD_RW ND-3540A Adapter: 1 ID: 0

Read mode : Secure
Utilize accurate stream : Yes
Defeat audio cache : Yes
Make use of C2 pointers : No

Read offset correction

: 48
Overread into Lead-In and Lead-Out : No
Fill up missing offset samples with silence : Yes
Delete leading and trailing silent blocks : No
Null samples used in CRC calculations : Yes
Used interface
: Native Win32 interface for Win NT & 2000
Gap handling
: Appended to previous track

Used output format : User Defined Encoder
Selected bitrate : 1024 kBit/s
Quality : High
Add ID3 tag : Yes
Command line compressor : C:\Program Files (x86)\Exact Audio Copy\FLAC\FLAC.EXE
Additional command line options : -6 -V -T "ARTIST=%artist%" -T "TITLE=%title%" -T "ALBUM=%albumtitle%" -T "DATE=%year%" -T "TRACKNUMBER=%tracknr%" -T "GENRE=%genre%" -T "COMMENT=%comment%" %hascover%--picture="%coverfile%"%hascover% %source% -o %dest%

TOC of the extracted CD Track | Start | Length | Start sector | End sector
--1 | 0:00.00 | 13:58.38 | 0 | 62887 2 | 13:58.38 | 1:09.19 | 62888 | 68081 3 | 15:07.57 | 15:10.26 | 68082 | 136357 4 | 30:18.08 | 6:53.16 | 136358 | 167348

Track 1 Filename F:\Music\olaf_alien\Polyphony - Without Introduction (1971, Eleventh Hour - 2011 Gear Fab)\01 - Juggernaut.wav Pre-gap length 0:00:02.00 Peak level 100.0 %
Extraction speed 5.3 X
Track quality 100.0 %
Test CRC 5621A36B
Copy CRC 5621A36B
Accurately ripped (confidence 4) [C45B6D0A] (AR v2)
Copy OK

Track 2 Filename F:\Music\olaf_alien\Polyphony - Without Introduction (1971, Eleventh Hour - 2011 Gear Fab)\02 - 40 Second Thing In 39 Seconds.wav Peak level 100.0 %
Extraction speed 4.1 X
Track quality 100.0 %
Test CRC 1B55FEA8
Copy CRC 1B55FEA8
Accurately ripped (confidence 4) [9A4D8E7A] (AR v2)
Copy OK

Track 3 Filename F:\Music\olaf_alien\Polyphony - Without Introduction (1971, Eleventh Hour - 2011 Gear Fab)\03 - Ariel's Flight.wav Peak level 100.0 %
Extraction speed 6.5 X
Track quality 99.9 %
Test CRC 4BDBFA5A
Copy CRC 4BDBFA5A
Accurately ripped (confidence 4) [8101FDD7] (AR v2)
Copy OK

Track 4 Filename F:\Music\olaf_alien\Polyphony - Without Introduction (1971, Eleventh Hour - 2011 Gear Fab)\04 - Crimson Dagger.wav Peak level 100.0 %
Extraction speed 7.4 X
Track quality 100.0 %
Test CRC 4CA5DEC4
Copy CRC 4CA5DEC4
Accurately ripped (confidence 4) [2073D1C7] (AR v2)
Copy OK

All tracks accurately ripped

No errors occurred

End of status report

==== Log checksum 0283B8B861E8E54AB693D3218F41E122B2D844967799EC5FF952AF665C7D0523 ====

[CUETools log; Date: 13.09.2015 13:15:59; Version: 2.1.4]
[CTDB TOCID: nbG4r1uZVFXZvJ6jwtGv4awQABc-] found.
Track | CTDB Status
1 | (1/1) Accurately ripped
2 | (1/1) Accurately ripped
3 | (1/1) Accurately ripped
4 | (1/1) Accurately ripped
[AccurateRip ID: 0006a1f5-001a2048-2b08b704] found.
Track [ CRC | V2 ] Status
01 [6df486f3|c45b6d0a] (0+5/5) Accurately ripped
02 [eb6a2b75|9a4d8e7a] (0+5/5) Accurately ripped
03 [118734a2|8101fdd7] (0+5/5) Accurately ripped
04 [046adb1f|2073d1c7] (0+5/5) Accurately ripped

Track Peak [ CRC32 ] [W/O NULL] [ LOG ]
-- 100,0 [0E88C4CC] [8F0D39A6]
01 100,0 [5621A36B] [1E3B0C56] CRC32
02 100,0 [1B55FEA8] [3F48A715] CRC32
03 100,0 [4BDBFA5A] 43BB616 CRC32
04 100,0 [4CA5DEC4] [4631F35A] CRC32
Thanks to olaf_alien
DOWNLOAD:
Buy Premium To Support Me & Get Resumable Support & Max Speed


Links are Interchangeable - No Password

Direct Download

Tags: Polyphony, Without, Introduction, Reissue

Polyphony - Without Introduction (1971) [Reissue 2011] Download via Hotfile Rapidshare Fileserve Megaupload & FileSonic, Polyphony - Without Introduction (1971) [Reissue 2011] free torrent downloads included crack, serial, keygen.


Attention!Information

Members of Guest cannot leave comments.