Freddie Mercury - Mr. Bad Guy (1985) [Non-Remastered] RE-UPPED

Download Now

Freddie Mercury - Mr. Bad Guy (1985) [Non-Remastered] RE-UPPED

Freddie Mercury - Mr. Bad Guy (1985)
EAC | FLAC+CUE+LOG > 322 MB | Full Scans | MP3 CBR 320 Kbps > 109 MB
Pop Rock / Disco / Pop | TT - 40:45 minutes | Label: Columbia Records # CK 40071-2

Mr. Bad Guy is the first solo album from Queen singer Freddie Mercury. Released in 1985, during a period in which Queen were on hiatus from recordings, the album contains eleven songs, all written by Mercury.
"

Freddie Mercury - Mr. Bad Guy (1985) [Non-Remastered] RE-UPPED

After 15 years at the helm of British rock legends Queen, singer Freddie Mercury finally released his first solo album, Mr. Bad Guy, while the band was on hiatus in 1985. As Queen's vocal signature and creative leader, it was only natural that many aspects of the group's sound would carry over into Mercury's solo work; however, the frontman still does a commendable job of stretching into uncharted territory. The synthesizers of "Let's Turn It On" announce that Queen's typical guitar heaviness will be conspicuously absent throughout the album, while extravagance will be at an all-time high. "I Was Born to Love You," the album's leadoff single, elevates '70s disco and '80s dance influences to a level of blatant pop silliness that Queen would never dare approach. Mercury also combines his acoustic piano playing with synthesizer-driven backing tracks for the beautifully dramatic "Made in Heaven" and "Your Kind of Lover," which transforms from a simple lounge number (piano and singer) into a Latin-flavored pop workout. The singer's talent for complex and original arrangements also yields multifaceted pieces like "Man Made Paradise," with its Queen-like chorused opera vocals and Brian May-esque guitar soloing, and the daring, self-mocking title track, which combines a sinister bass motif, playful piano tinkling, and even big-band horn arrangements. Other winners such as "There Must Be More to Life Than This," "Living on My Own," and "Love Me Like There's No Tomorrow" help make this an outstanding record from start to finish.

-- Review by Eduardo Rivadavia, allmusic.com"


Tracklist:

01. Let's Turn It On
02. Made In Heaven
03. I Was Born To Love You
04. Foolin' Around
05. Your Kind Of Lover
06. Mr. Bad Guy
07. Man Made Paradise
08. There Must Be More To Life Than This
09. Living On My Own
10. My Love Is Dangerous
11. Love Me Like There's No Tomorrow

Produced by Reinhold Mack and Freddie Mercury.

More info @ Wikipedia

Thanks to Olaf der Weisse!

Exact Audio Copy V0.99 prebeta 5 from 4. May 2009

EAC extraction logfile from 25. October 2010, 18:01

Freddie Mercury / Mr. Bad Guy (CK 40071)

Used drive : MATSHITADVD-R UJ-825 Adapter: 0 ID: 1

Read mode : Secure
Utilize accurate stream : Yes
Defeat audio cache : Yes
Make use of C2 pointers : No

Read offset correction

: 102
Overread into Lead-In and Lead-Out : No
Fill up missing offset samples with silence : Yes
Delete leading and trailing silent blocks : No
Null samples used in CRC calculations : Yes
Used interface
: Native Win32 interface for Win NT & 2000

Used output format : User Defined Encoder
Selected bitrate : 768 kBit/s
Quality : High
Add ID3 tag : No
Command line compressor : C:\Program Files\Exact Audio Copy\Flac\flac.exe
Additional command line options : -8 -V %s

TOC of the extracted CD Track | Start | Length | Start sector | End sector
--1 | 0:00.00 | 3:42.52 | 0 | 16701 2 | 3:42.52 | 4:06.35 | 16702 | 35186 3 | 7:49.12 | 3:38.73 | 35187 | 51609 4 | 11:28.10 | 3:30.00 | 51610 | 67359 5 | 14:58.10 | 3:34.60 | 67360 | 83469 6 | 18:32.70 | 4:10.17 | 83470 | 102236 7 | 22:43.12 | 4:09.28 | 102237 | 120939 8 | 26:52.40 | 3:01.20 | 120940 | 134534 9 | 29:53.60 | 3:23.32 | 134535 | 149791
10 | 33:17.17 | 3:43.35 | 149792 | 166551
11 | 37:00.52 | 3:49.23 | 166552 | 183749

Range status and errors

Selected range Filename C:\Olaf der Weisse\Freddie Mercury . 1985 . Mr. Bad Guy (CK 40071)\Freddie Mercury - Mr. Bad Guy (CK 40071).wav Peak level 84.6 %
Range quality 100.0 %
Test CRC 306A4DED
Copy CRC 306A4DED
Copy OK

No errors occurred


AccurateRip summary

Track 1 accurately ripped (confidence 3) [90699B2B]
Track 2 accurately ripped (confidence 3) [E2D24D20]
Track 3 accurately ripped (confidence 3) [7CDF2954]
Track 4 accurately ripped (confidence 2) [AD8D11F8]
Track 5 accurately ripped (confidence 3) [E9219828]
Track 6 accurately ripped (confidence 3) [116FB354]
Track 7 accurately ripped (confidence 3) [55FF9D7E]
Track 8 accurately ripped (confidence 3) [368C4319]
Track 9 accurately ripped (confidence 3) [1D5DA893]
Track 10 accurately ripped (confidence 3) [557924F7]
Track 11 accurately ripped (confidence 3) [7A1E3955]

All tracks accurately ripped

End of status report

[AccurateRip ID: 0010f847-0092aaec-8a09920b] found.
Track [ CRC ] Status
01 [90699b2b] (04/11) Accurately ripped
02 [e2d24d20] (04/12) Accurately ripped
03 [7cdf2954] (04/12) Accurately ripped
04 [ad8d11f8] (03/11) Accurately ripped
05 [e9219828] (04/12) Accurately ripped
06 [116fb354] (04/12) Accurately ripped
07 [55ff9d7e] (04/12) Accurately ripped
08 [368c4319] (04/12) Accurately ripped
09 [1d5da893] (04/12) Accurately ripped
10 [557924f7] (04/12) Accurately ripped
11 [7a1e3955] (04/12) Accurately ripped
Offsetted by -588:
01 [21c07502] (02/11) Accurately ripped
02 [5c3b6d3d] (02/12) Accurately ripped
03 [2e4d9df7] (02/12) Accurately ripped
04 [1a64e515] (02/11) Accurately ripped
05 [723d9a4a] (02/12) Accurately ripped
06 [6f13494e] (02/12) Accurately ripped
07 [3b95610a] (02/12) Accurately ripped
08 [5f14a21d] (02/12) Accurately ripped
09 [091b9e68] (02/12) Accurately ripped
10 [a85c3350] (02/12) Accurately ripped
11 [e2fd6a2f] (02/12) Accurately ripped
Offsetted by -391:
01 [dd9afcf1] (05/11) Accurately ripped
02 86a222b (06/12) Accurately ripped
03 [721b721a] (06/12) Accurately ripped
04 [6824f2ee] (06/11) Accurately ripped
05 [cfe9aece] (06/12) Accurately ripped
06 [844a1fde] (06/12) Accurately ripped
07 [486fc991] (06/12) Accurately ripped
08 [a4572f8d] (06/12) Accurately ripped
09 [dc7394a8] (06/12) Accurately ripped
10 [62a3ae6b] (06/12) Accurately ripped
11 [d3ba9f21] (06/12) Accurately ripped

Track Peak [ CRC32 ] [W/O NULL] [ LOG ]
-- 84,6 [306A4DED] [70F3B721] CRC32
01 75,5 [C01E7A41] [ABF3F232]
02 84,6 [8840D1CF] [35CFB926]
03 83,0 [91F95E8D] [33040B9D]
04 80,6 [47DABB7C] [3E8A681E]
05 82,9 [8F8E36AB] [C0B38BA6]
06 79,6 [CFDAE926] [77103304]
07 72,0 [EB29B16A] [052D7F93]
08 62,6 [808812A0] [0874B14A]
09 73,6 [9D777A3B] [A2C690E9]
10 70,1 [78BD8562] [C62E02E4]
11 63,8 A7A60DF [396B2F67]
DOWNLOAD LINKS
(Premium Recommended)


Links are Interchangeable - No Password - Single Extraction

Direct Download

Tags: Freddie, Mercury, Remastered

Freddie Mercury - Mr. Bad Guy (1985) [Non-Remastered] RE-UPPED Download via Hotfile Rapidshare Fileserve Megaupload & FileSonic, Freddie Mercury - Mr. Bad Guy (1985) [Non-Remastered] RE-UPPED free torrent downloads included crack, serial, keygen.


Attention!Information

Members of Guest cannot leave comments.