Johnny Burnette - Rockabilly & Beyond (2CD, 2011) *RE-UP

Download Now

Johnny Burnette - Rockabilly & Beyond (2CD, 2011) *RE-UP

Johnny Burnette - Rockabilly & Beyond (2CD, 2011)
EAC-FLAC(tracks) with CUEs and LOGs - 575 MB | Complete Scans | MP3 CBR 320 Kbps - 252 MB
Rockabilly Riot | Running time - 103:53 minutes | Label: One Day Music, U.K. | Catalogue # DAY2CD108

This 2CD set features Johnny Burnette's most loved tracks from the raw Rock n' Roll sound of his early work to the polished pop of Dreamin'. All his best tracks digitally remastered on 2CDs. Do not miss the chance to own these 46 classic tracks.
"allmusic.com says:
A contemporary of Elvis Presley in the Memphis scene of the mid-'50s, Johnny Burnette played a similar brand of fiery, spare wildman rockabilly. With his brother Dorsey (on bass) and guitarist Paul Burlison forming his Rock 'n' Roll Trio, he recorded a clutch of singles for Decca in 1956 and 1957 that achieved nothing more than regional success. Featuring the groundbreaking fuzzy tone of Burlison's guitar, Johnny's energetic vocals, and Dorsey's slapping bass, these recordings -- highlighted by the first rock & roll version of "Train Kept A-Rollin'" -- compare well to the classic Sun rockabilly of the same era. The trio disbanded in 1957, and Johnny found pop success as a teen idol in the early '60s with hits like "You're Sixteen" and "Dreamin'." Burnette died in a boating accident in 1964. His brother Dorsey achieved modest success as a solo act in the early '60s, and Burlison resurfaced as a member of the Sun Rhythm Section.

"

Tracks:

CD1:
01. Honey Hush
02. The Train Kept A Rollin'
03. Rock Billy Boogie
04. Tear It Up
05. Oh Baby Babe
06. You're Undecided
07. Drinking Wine Sppo-Dee-O-Dee
08. If You Want It Enough
09. All By Myself
10. Sweet Love On My Mind
11. Touch Me
12. Lonesome Tears In My Eyes
13. Your Baby Blue Eyes
14. I Just Found Out
15. Warm Love
16. Eager Beaver Baby
17. Chains Of Love
18. My Honey
19. Butterfingers
20. Midnight Train
21. I Love You So
22. Rock Therapy
23. Lonesome Train (On A Lonesome Track)

CD2:
01. Sweet Baby Doll
02. I'm Restless
03. Kiss Me
04. Gumbo
05. Me And The Bear
06. I'll Never Love Again
07. Dreamin'
08. Cincinnati Fireball
09. You're Sixteen
10. I Beg Your Pardon
11. Settin' The Woods On Fire
12. Kentucky Waltz
13. Don't Do It
14. Please Help Me I'm Falling
15. Finders Keepers
16. Lovesick Blues
17. Why Don't You Haul Off And Love Me
18. Kaw-Liga
19. I Want To Be With You Always
20. My Special Angel
21. I Really Don't Want To Know
22. Love Me
23. Blues Stay Away From Me

(P)+(C) 2011 One Day Music Ltd., Co., United Kingdom.
Released on July 25, 2011.

Exact Audio Copy V1.0 beta 1 from 15. November 2010

EAC extraction logfile from 30. November 2011, 22:25

Johnny Burnette / Rockabilly & Beyond CD1

Used drive : ASUS DRW-2014S1 Adapter: 0 ID: 0

Read mode : Secure
Utilize accurate stream : Yes
Defeat audio cache : Yes
Make use of C2 pointers : No

Read offset correction

: 6
Overread into Lead-In and Lead-Out : No
Fill up missing offset samples with silence : Yes
Delete leading and trailing silent blocks : No
Null samples used in CRC calculations : Yes
Used interface
: Native Win32 interface for Win NT & 2000
Gap handling
: Appended to previous track

Used output format : User Defined Encoder
Selected bitrate : 1024 kBit/s
Quality : High
Add ID3 tag : No
Command line compressor : C:\Program Files\FLAC\flac.exe
Additional command line options : -8 -V -T "ARTIST=%a" -T "TITLE=%t" -T "ALBUM=%g" -T "DATE=%y" -T "TRACKNUMBER=%n" -T "GENRE=%m" -T "COMMENT=EAC FLAC -8" %s

TOC of the extracted CD Track | Start | Length | Start sector | End sector
--1 | 0:00.00 | 2:03.60 | 0 | 9284 2 | 2:03.60 | 2:16.47 | 9285 | 19531 3 | 4:20.32 | 2:34.07 | 19532 | 31088 4 | 6:54.39 | 1:55.28 | 31089 | 39741 5 | 8:49.67 | 2:22.09 | 39742 | 50400 6 | 11:12.01 | 1:59.35 | 50401 | 59360 7 | 13:11.36 | 2:14.05 | 59361 | 69415 8 | 15:25.41 | 2:08.51 | 69416 | 79066 9 | 17:34.17 | 2:02.05 | 79067 | 88221
10 | 19:36.22 | 2:24.40 | 88222 | 99061
11 | 22:00.62 | 2:26.03 | 99062 | 110014
12 | 24:26.65 | 2:02.24 | 110015 | 119188
13 | 26:29.14 | 2:08.74 | 119189 | 128862
14 | 28:38.13 | 2:21.15 | 128863 | 139452
15 | 30:59.28 | 1:56.42 | 139453 | 148194
16 | 32:55.70 | 2:03.06 | 148195 | 157425
17 | 34:59.01 | 2:37.45 | 157426 | 169245
18 | 37:36.46 | 2:00.17 | 169246 | 178262
19 | 39:36.63 | 2:14.23 | 178263 | 188335
20 | 41:51.11 | 2:12.53 | 188336 | 198288
21 | 44:03.64 | 2:16.48 | 198289 | 208536
22 | 46:20.37 | 2:17.02 | 208537 | 218813
23 | 48:37.39 | 2:04.23 | 218814 | 228136

Track 1 Filename C:\EAC\CD1\01. Johnny Burnette - Honey Hush.wav Pre-gap length 0:00:02.00 Peak level 98.3 %
Extraction speed 4.2 X
Track quality 100.0 %
Test CRC FA5815E2
Copy CRC FA5815E2
Track not present in AccurateRip database
Copy OK

Track 2 Filename C:\EAC\CD1\02. Johnny Burnette - The Train Kept A Rollin'.wav Pre-gap length 0:00:01.58 Peak level 98.3 %
Extraction speed 4.6 X
Track quality 100.0 %
Test CRC 7E95BC87
Copy CRC 7E95BC87
Track not present in AccurateRip database
Copy OK

Track 3 Filename C:\EAC\CD1\03. Johnny Burnette - Rock Billy Boogie.wav Pre-gap length 0:00:01.58 Peak level 98.3 %
Extraction speed 5.0 X
Track quality 100.0 %
Test CRC C5646295
Copy CRC C5646295
Track not present in AccurateRip database
Copy OK

Track 4 Filename C:\EAC\CD1\04. Johnny Burnette - Tear It Up.wav Pre-gap length 0:00:01.58 Peak level 98.4 %
Extraction speed 5.0 X
Track quality 100.0 %
Test CRC B9AE1558
Copy CRC B9AE1558
Track not present in AccurateRip database
Copy OK

Track 5 Filename C:\EAC\CD1\05. Johnny Burnette - Oh Baby Babe.wav Pre-gap length 0:00:01.58 Peak level 98.3 %
Extraction speed 4.5 X
Track quality 99.9 %
Test CRC E7B724FA
Copy CRC E7B724FA
Track not present in AccurateRip database
Copy OK

Track 6 Filename C:\EAC\CD1\06. Johnny Burnette - You're Undecided.wav Pre-gap length 0:00:01.58 Peak level 98.4 %
Extraction speed 5.4 X
Track quality 100.0 %
Test CRC D1AD1085
Copy CRC D1AD1085
Track not present in AccurateRip database
Copy OK

Track 7 Filename C:\EAC\CD1\07. Johnny Burnette - Drinking Wine Sppo-Dee-O-Dee.wav Pre-gap length 0:00:01.58 Peak level 98.4 %
Extraction speed 5.8 X
Track quality 100.0 %
Test CRC 0D1617E9
Copy CRC 0D1617E9
Track not present in AccurateRip database
Copy OK

Track 8 Filename C:\EAC\CD1\08. Johnny Burnette - If You Want It Enough.wav Pre-gap length 0:00:01.58 Peak level 98.3 %
Extraction speed 6.0 X
Track quality 100.0 %
Test CRC 07E2AA42
Copy CRC 07E2AA42
Track not present in AccurateRip database
Copy OK

Track 9 Filename C:\EAC\CD1\09. Johnny Burnette - All By Myself.wav Pre-gap length 0:00:01.58 Peak level 98.3 %
Extraction speed 6.1 X
Track quality 100.0 %
Test CRC A6D835E8
Copy CRC A6D835E8
Track not present in AccurateRip database
Copy OK

Track 10 Filename C:\EAC\CD1\10. Johnny Burnette - Sweet Love On My Mind.wav Pre-gap length 0:00:01.58 Peak level 98.3 %
Extraction speed 6.6 X
Track quality 100.0 %
Test CRC 3FF988DF
Copy CRC 3FF988DF
Track not present in AccurateRip database
Copy OK

Track 11 Filename C:\EAC\CD1\11. Johnny Burnette - Touch Me.wav Pre-gap length 0:00:01.58 Peak level 98.4 %
Extraction speed 6.8 X
Track quality 100.0 %
Test CRC B39D0FA9
Copy CRC B39D0FA9
Track not present in AccurateRip database
Copy OK

Track 12 Filename C:\EAC\CD1\12. Johnny Burnette - Lonesome Tears In My Eyes.wav Pre-gap length 0:00:01.58 Peak level 98.3 %
Extraction speed 6.7 X
Track quality 100.0 %
Test CRC 2F5BFDC4
Copy CRC 2F5BFDC4
Track not present in AccurateRip database
Copy OK

Track 13 Filename C:\EAC\CD1\13. Johnny Burnette - Your Baby Blue Eyes.wav Pre-gap length 0:00:01.58 Peak level 98.4 %
Extraction speed 6.9 X
Track quality 100.0 %
Test CRC 6F4F127E
Copy CRC 6F4F127E
Track not present in AccurateRip database
Copy OK

Track 14 Filename C:\EAC\CD1\14. Johnny Burnette - I Just Found Out.wav Pre-gap length 0:00:01.58 Peak level 98.3 %
Extraction speed 7.3 X
Track quality 100.0 %
Test CRC 394A3FF3
Copy CRC 394A3FF3
Track not present in AccurateRip database
Copy OK

Track 15 Filename C:\EAC\CD1\15. Johnny Burnette - Warm Love.wav Pre-gap length 0:00:01.58 Peak level 98.4 %
Extraction speed 5.6 X
Track quality 99.9 %
Test CRC 1CE69255
Copy CRC 1CE69255
Track not present in AccurateRip database
Copy OK

Track 16 Filename C:\EAC\CD1\16. Johnny Burnette - Eager Beaver Baby.wav Pre-gap length 0:00:01.58 Peak level 98.3 %
Extraction speed 7.3 X
Track quality 100.0 %
Test CRC EB6AE7AB
Copy CRC EB6AE7AB
Track not present in AccurateRip database
Copy OK

Track 17 Filename C:\EAC\CD1\17. Johnny Burnette - Chains Of Love.wav Pre-gap length 0:00:01.58 Peak level 98.3 %
Extraction speed 7.9 X
Track quality 100.0 %
Test CRC BFCC4188
Copy CRC BFCC4188
Track not present in AccurateRip database
Copy OK

Track 18 Filename C:\EAC\CD1\18. Johnny Burnette - My Honey.wav Pre-gap length 0:00:01.58 Peak level 98.5 %
Extraction speed 7.4 X
Track quality 100.0 %
Test CRC 5D136B68
Copy CRC 5D136B68
Track not present in AccurateRip database
Copy OK

Track 19 Filename C:\EAC\CD1\19. Johnny Burnette - Butterfingers.wav Pre-gap length 0:00:01.58 Peak level 98.6 %
Extraction speed 7.9 X
Track quality 100.0 %
Test CRC 6D45AAC9
Copy CRC 6D45AAC9
Track not present in AccurateRip database
Copy OK

Track 20 Filename C:\EAC\CD1\20. Johnny Burnette - Midnight Train.wav Pre-gap length 0:00:01.58 Peak level 98.3 %
Extraction speed 8.1 X
Track quality 100.0 %
Test CRC BA9E31FE
Copy CRC BA9E31FE
Track not present in AccurateRip database
Copy OK

Track 21 Filename C:\EAC\CD1\21. Johnny Burnette - I Love You So.wav Pre-gap length 0:00:01.58 Peak level 98.3 %
Extraction speed 8.2 X
Track quality 100.0 %
Test CRC 88122ED4
Copy CRC 88122ED4
Track not present in AccurateRip database
Copy OK

Track 22 Filename C:\EAC\CD1\22. Johnny Burnette - Rock Therapy.wav Pre-gap length 0:00:01.58 Peak level 98.4 %
Extraction speed 8.4 X
Track quality 100.0 %
Test CRC CBB5D1CF
Copy CRC CBB5D1CF
Track not present in AccurateRip database
Copy OK

Track 23 Filename C:\EAC\CD1\23. Johnny Burnette - Lonesome Train (On A Lonesome Track).wav Pre-gap length 0:00:01.58 Peak level 98.3 %
Extraction speed 8.3 X
Track quality 100.0 %
Test CRC 08D3FF63
Copy CRC 08D3FF63
Track not present in AccurateRip database
Copy OK

None of the tracks are present in the AccurateRip database

No errors occurred

End of status report

==== Log checksum 30709BE9F5B87A3BDB5F93DBDC987344780AFA711AB7862C06E613C87F7EF61C ====

++++++++++++++++++++++++++++++++++++

Exact Audio Copy V1.0 beta 1 from 15. November 2010

EAC extraction logfile from 30. November 2011, 23:11

Johnny Burnette / Rockabilly & Beyond CD2

Used drive : ASUS DRW-2014S1 Adapter: 0 ID: 0

Read mode : Secure
Utilize accurate stream : Yes
Defeat audio cache : Yes
Make use of C2 pointers : No

Read offset correction

: 6
Overread into Lead-In and Lead-Out : No
Fill up missing offset samples with silence : Yes
Delete leading and trailing silent blocks : No
Null samples used in CRC calculations : Yes
Used interface
: Native Win32 interface for Win NT & 2000
Gap handling
: Appended to previous track

Used output format : User Defined Encoder
Selected bitrate : 1024 kBit/s
Quality : High
Add ID3 tag : No
Command line compressor : C:\Program Files\FLAC\flac.exe
Additional command line options : -8 -V -T "ARTIST=%a" -T "TITLE=%t" -T "ALBUM=%g" -T "DATE=%y" -T "TRACKNUMBER=%n" -T "GENRE=%m" -T "COMMENT=EAC FLAC -8" %s

TOC of the extracted CD Track | Start | Length | Start sector | End sector
--1 | 0:00.00 | 2:34.71 | 0 | 11620 2 | 2:34.71 | 2:15.11 | 11621 | 21756 3 | 4:50.07 | 2:18.28 | 21757 | 32134 4 | 7:08.35 | 2:04.62 | 32135 | 41496 5 | 9:13.22 | 2:25.58 | 41497 | 52429 6 | 11:39.05 | 2:25.11 | 52430 | 63315 7 | 14:04.16 | 2:19.52 | 63316 | 73792 8 | 16:23.68 | 2:45.33 | 73793 | 86200 9 | 19:09.26 | 1:58.24 | 86201 | 95074
10 | 21:07.50 | 2:14.25 | 95075 | 105149
11 | 23:22.00 | 2:03.15 | 105150 | 114389
12 | 25:25.15 | 2:12.37 | 114390 | 124326
13 | 27:37.52 | 2:45.16 | 124327 | 136717
14 | 30:22.68 | 2:22.09 | 136718 | 147376
15 | 32:45.02 | 2:15.66 | 147377 | 157567
16 | 35:00.68 | 2:02.71 | 157568 | 166788
17 | 37:03.64 | 1:50.02 | 166789 | 175040
18 | 38:53.66 | 2:15.27 | 175041 | 185192
19 | 41:09.18 | 1:42.04 | 185193 | 192846
20 | 42:51.22 | 3:03.08 | 192847 | 206579
21 | 45:54.30 | 2:05.01 | 206580 | 215955
22 | 47:59.31 | 2:47.57 | 215956 | 228537
23 | 50:47.13 | 2:23.58 | 228538 | 239320

Track 1 Filename C:\EAC\CD2\01. Johnny Burnette - Sweet Baby Doll.wav Pre-gap length 0:00:02.00 Peak level 98.3 %
Extraction speed 2.3 X
Track quality 100.0 %
Test CRC 84FD6916
Copy CRC 84FD6916
Track not present in AccurateRip database
Copy OK

Track 2 Filename C:\EAC\CD2\02. Johnny Burnette - I'm Restless.wav Pre-gap length 0:00:01.58 Peak level 98.3 %
Extraction speed 2.0 X
Track quality 99.9 %
Test CRC 29F39780
Copy CRC 29F39780
Track not present in AccurateRip database
Copy OK

Track 3 Filename C:\EAC\CD2\03. Johnny Burnette - Kiss Me.wav Pre-gap length 0:00:01.58 Peak level 98.3 %
Extraction speed 2.6 X
Track quality 100.0 %
Test CRC A11F091E
Copy CRC A11F091E
Track not present in AccurateRip database
Copy OK

Track 4 Filename C:\EAC\CD2\04. Johnny Burnette - Gumbo.wav Pre-gap length 0:00:01.58 Peak level 98.3 %
Extraction speed 2.6 X
Track quality 100.0 %
Test CRC 7BA08932
Copy CRC 7BA08932
Track not present in AccurateRip database
Copy OK

Track 5 Filename C:\EAC\CD2\05. Johnny Burnette - Me And The Bear.wav Pre-gap length 0:00:01.58 Peak level 98.4 %
Extraction speed 2.4 X
Track quality 99.9 %
Test CRC 364AA301
Copy CRC 364AA301
Track not present in AccurateRip database
Copy OK

Track 6 Filename C:\EAC\CD2\06. Johnny Burnette - I'll Never Love Again.wav Pre-gap length 0:00:01.58 Peak level 98.3 %
Extraction speed 3.0 X
Track quality 100.0 %
Test CRC 9FC3384B
Copy CRC 9FC3384B
Track not present in AccurateRip database
Copy OK

Track 7 Filename C:\EAC\CD2\07. Johnny Burnette - Dreamin'.wav Pre-gap length 0:00:01.58 Peak level 98.3 %
Extraction speed 3.1 X
Track quality 100.0 %
Test CRC 9F126A9F
Copy CRC 9F126A9F
Track not present in AccurateRip database
Copy OK

Track 8 Filename C:\EAC\CD2\08. Johnny Burnette - Cincinnati Fireball.wav Pre-gap length 0:00:01.58 Peak level 98.3 %
Extraction speed 3.4 X
Track quality 100.0 %
Test CRC 2089F804
Copy CRC 2089F804
Track not present in AccurateRip database
Copy OK

Track 9 Filename C:\EAC\CD2\09. Johnny Burnette - You're Sixteen.wav Pre-gap length 0:00:01.58 Peak level 98.3 %
Extraction speed 3.2 X
Track quality 100.0 %
Test CRC 992E53B4
Copy CRC 992E53B4
Track not present in AccurateRip database
Copy OK

Track 10 Filename C:\EAC\CD2\10. Johnny Burnette - I Beg Your Pardon.wav Pre-gap length 0:00:01.58 Peak level 98.4 %
Extraction speed 3.4 X
Track quality 100.0 %
Test CRC D2553615
Copy CRC D2553615
Track not present in AccurateRip database
Copy OK

Track 11 Filename C:\EAC\CD2\11. Johnny Burnette - Settin' The Woods On Fire.wav Pre-gap length 0:00:01.58 Peak level 98.4 %
Extraction speed 2.8 X
Track quality 99.9 %
Test CRC B7FC81AB
Copy CRC B7FC81AB
Track not present in AccurateRip database
Copy OK

Track 12 Filename C:\EAC\CD2\12. Johnny Burnette - Kentucky Waltz.wav Pre-gap length 0:00:01.58 Peak level 98.4 %
Extraction speed 2.9 X
Track quality 99.9 %
Test CRC C6231196
Copy CRC C6231196
Track not present in AccurateRip database
Copy OK

Track 13 Filename C:\EAC\CD2\13. Johnny Burnette - Don't Do It.wav Pre-gap length 0:00:01.58 Peak level 98.4 %
Extraction speed 3.9 X
Track quality 100.0 %
Test CRC 7CE1AFA0
Copy CRC 7CE1AFA0
Track not present in AccurateRip database
Copy OK

Track 14 Filename C:\EAC\CD2\14. Johnny Burnette - Please Help Me I'm Falling.wav Pre-gap length 0:00:01.58 Peak level 98.4 %
Extraction speed 3.2 X
Track quality 99.9 %
Test CRC 207D5E90
Copy CRC 207D5E90
Track not present in AccurateRip database
Copy OK

Track 15 Filename C:\EAC\CD2\15. Johnny Burnette - Finders Keepers.wav Pre-gap length 0:00:01.58 Peak level 98.5 %
Extraction speed 3.9 X
Track quality 100.0 %
Test CRC C591FFF9
Copy CRC C591FFF9
Track not present in AccurateRip database
Copy OK

Track 16 Filename C:\EAC\CD2\16. Johnny Burnette - Lovesick Blues.wav Pre-gap length 0:00:01.58 Peak level 98.3 %
Extraction speed 3.8 X
Track quality 100.0 %
Test CRC 2E95F8DA
Copy CRC 2E95F8DA
Track not present in AccurateRip database
Copy OK

Track 17 Filename C:\EAC\CD2\17. Johnny Burnette - Why Don't You Haul Off And Love Me.wav Pre-gap length 0:00:01.58 Peak level 98.3 %
Extraction speed 3.9 X
Track quality 100.0 %
Test CRC 38D85534
Copy CRC 38D85534
Track not present in AccurateRip database
Copy OK

Track 18 Filename C:\EAC\CD2\18. Johnny Burnette - Kaw-Liga.wav Pre-gap length 0:00:01.58 Peak level 98.4 %
Extraction speed 4.1 X
Track quality 100.0 %
Test CRC 0B59214B
Copy CRC 0B59214B
Track not present in AccurateRip database
Copy OK

Track 19 Filename C:\EAC\CD2\19. Johnny Burnette - I Want To Be With You Always.wav Pre-gap length 0:00:01.58 Peak level 98.5 %
Extraction speed 3.9 X
Track quality 100.0 %
Test CRC 178B892D
Copy CRC 178B892D
Track not present in AccurateRip database
Copy OK

Track 20 Filename C:\EAC\CD2\20. Johnny Burnette - My Special Angel.wav Pre-gap length 0:00:01.58 Peak level 98.3 %
Extraction speed 4.6 X
Track quality 100.0 %
Test CRC D16CF3BD
Copy CRC D16CF3BD
Track not present in AccurateRip database
Copy OK

Track 21 Filename C:\EAC\CD2\21. Johnny Burnette - I Really Don't Want To Know.wav Pre-gap length 0:00:01.58 Peak level 98.3 %
Extraction speed 4.3 X
Track quality 100.0 %
Test CRC DD7BA210
Copy CRC DD7BA210
Track not present in AccurateRip database
Copy OK

Track 22 Filename C:\EAC\CD2\22. Johnny Burnette - Love Me.wav Pre-gap length 0:00:01.58 Peak level 98.3 %
Extraction speed 4.7 X
Track quality 100.0 %
Test CRC C56A3D31
Copy CRC C56A3D31
Track not present in AccurateRip database
Copy OK

Track 23 Filename C:\EAC\CD2\23. Johnny Burnette - Blues Stay Away From Me.wav Pre-gap length 0:00:01.57 Peak level 98.3 %
Extraction speed 3.8 X
Track quality 99.9 %
Test CRC 73A218D6
Copy CRC 73A218D6
Track not present in AccurateRip database
Copy OK

None of the tracks are present in the AccurateRip database

No errors occurred

End of status report

==== Log checksum 66E8B0477F2C14750DD15477D3527FD1FA6D582395B8A585359052C7E39AE48E ====

Thanks to se3am!
Download Links:
(Premium Recommended)


All above links are interchangable. No password

Direct Download

Tags: Johnny, Burnette, Rockabilly, Beyond

Johnny Burnette - Rockabilly & Beyond (2CD, 2011) *RE-UP Download via Hotfile Rapidshare Fileserve Megaupload & FileSonic, Johnny Burnette - Rockabilly & Beyond (2CD, 2011) *RE-UP free torrent downloads included crack, serial, keygen.


Attention!Information

Members of Guest cannot leave comments.