Jordi Savall & Hesperion XXI - Jerusalem: La Ville des deux Paix (2008) [2CD] {Alia Vox}

Download Now


Jordi Savall & Hesperion XXI - Jerusalem: La Ville des deux Paix (2008) [2CD] {Alia Vox}
Jordi Savall & Hesperion XXI - Jerusalem: La Ville des deux Paix (2008) [2CD] {Alia Vox}
EAC rip (secure mode) | FLAC (tracks)+CUE+LOG -> 803 Mb | MP3 @320 -> 365 Mb
Full Artwork @ 600 dpi (jpg) -> 414 Mb | 5% repair rar
© 2008 Alia Vox | AVSA 9863
Classical / Medieval / Chamber Music / Vocal Music / Jewish Folk / Worl Music

"Jordi Savall, performer, researcher, and promoter of early music, has become known for beautifully produced thematic collections organized around topics as diverse as the worlds of Miguel Cervantes, Christopher Columbus, and Caravaggio, performed by his ensembles Hespèrion XX (and XXI), and La Capella Reial de Catalunya, and recorded on his own label, Alia Vox. This immensely ambitious project, Jerusalem: City of the two peaces: Heavenly Peace and Earthly Peace, consists of two SACDs and a sumptuous book in eight languages, French, Spanish, English, Catalan, German, Italian, Arabic, and Hebrew, that includes a wide assortment of intriguing essays."

Jordi Savall & Hesperion XXI - Jerusalem: La Ville des deux Paix (2008) [2CD] {Alia Vox}

Jordi Savall & Hesperion XXI - Jerusalem: La Ville des deux Paix (2008) [2CD] {Alia Vox}

"The project traces the history of Jerusalem from about a millennium BCE to the present, with music from both written and vernacular traditions and readings from sacred and historical documents. Savall enlists the collaboration of Israel musician Yair Dalal, the Sufi ensemble Ali Darwish, and numerous other Middle Eastern and Western musicians. The subject of Jerusalem is emotionally charged with extra-musical associations, and the selections recorded here are viscerally gripping, starting with Savall's primally cacophonous fanfare for winds and percussion depicting an ancient Israelite preparation for battle and ending with his Final fanfare "Against the barriers of the Spirit." The vocal and instrumental music of Middle Eastern folk traditions is interspersed with psalm settings, troubadour Crusader songs, readings from the Koran, the Hebrew Bible, apocryphal Christian texts, Pope Urban II's chilling call to the First Crusade, and a historical recording of a Hymn to the Victims of Auschwitz, written in 1941.

Jordi Savall & Hesperion XXI - Jerusalem: La Ville des deux Paix (2008) [2CD] {Alia Vox}

Jordi Savall & Hesperion XXI - Jerusalem: La Ville des deux Paix (2008) [2CD] {Alia Vox}


The panoramic effect of this range of history and cultures is aurally mesmerizing, the level of music-making is thrilling, and there is exquisite attention paid to smallest details; the performances have all the polish and spirited vitality typical of Savall's productions. The sound of the SACDs is immaculate: clean and vividly present. Highly recommended."


Jordi Savall & Hesperion XXI - Jerusalem: La Ville des deux Paix (2008) [2CD] {Alia Vox}

Jordi Savall & Hesperion XXI - Jerusalem: La Ville des deux Paix (2008) [2CD] {Alia Vox}


Alia Vox INFO

Personnel:
L. Elmaleh, M. Shahin Khalil, R. Amyan, B. Olavide, Ll. Vilamajó, M. Mauillon, Y. Dalal, G. Mouradian, O. Bashir, A. Lawrence-King
LA CAPELLA REIAL DE CATALUNYA
AL-DARWISH
HESPÈRION XXI
Montserrat Figueras
Jordi Savall


tracklist:
CD1

01 - Fanfare of Jericho, 1200 B.C.
02 - The Sibylline Oracles (3rd century B.C.)
03 - Introduction
04 - The Koran- Bismi Al.la ar Rahman (7th Century)
05 - Postludium
06 - Audi pontus
07 - Postlude
08 - Shofars call
09 - Prayer for Jerusalem (Psalm 121)
10 - Instrumental dance
11 - The Peace of Jerusalem (Psalm 122)
12 - Rabbi Akiva goes to Jerusalem
13 - Song of Exile (Psalm 137, 1-6)
14 - Instrumental lament
15 - Stavrotheotokia (Hymn to Virgin at the foot of the Cross)
16 - Fanfare ''Pax in nomine Domine''
17 - Pope Urban II, first call to the Crusade, 1095
18 - Crusaders' song- Pax in nomine Domini
19 - Crusaders' song- Chevalier, mult estes guaritz, 1146
20 - Conductus- O totius Asie Gloria, Regis Alexandria Filia
21 - Planctus ''Pax in nomine Domini''
22 - The Dome of the Rock
23 - Zionida- Yefe Nof - Beautiful city, delight of the world

Jordi Savall & Hesperion XXI - Jerusalem: La Ville des deux Paix (2008) [2CD] {Alia Vox}


CD2
01 - O ffondo do mar tan chao
02 - Prelude
03 - The Koran, Sura XVII, 1- Mohammed ascends to heaven from Temple Mount
04 - Danse of the Soma
05 - Sallatu Allah
06 - Makam 'Uzal Sakil ''Turna''
07 - Suleyman the Magnificent's dream, 1520
08 - Warrior's march
09 - Palestina hermoza y Santa
10 - Palestinian Lament
11 - Lament for the city of Ani
12 - El male rahamim
13 - Funeral march
14 - Instrumental dialogue
15 - A plea for peace in Arabic
16 - A plea for peace in Hebrew Adonay
17 - A plea for peace in Armenian
18 - A plea for peace- Da Pacem (Gregorian)
19 - Apo xeno meros (in Greek)
20 - Ghazal (in Arabic)
21 - Ghazal (in Hebrew)
22 - Ghazal (Palestine)
23 - Siente Hermosa (in Ladino)
24 - Apo xeno meros (in Greek)
25 - Durme, hermoza donzella (in Ladino)
26 - Ghazal (in Arabic, Greek & Hebrew)
27 - Ghazal (instrumental)
28 - Final Ensemble (tutti)
29 - Final Fanfare ''Against the barriers of the Spirit''

Jordi Savall & Hesperion XXI - Jerusalem: La Ville des deux Paix (2008) [2CD] {Alia Vox}



Exact Audio Copy V1.0 beta 1 from 15. November 2010

EAC extraction logfile from 16. April 2013, 16:04

Various / Jerusalem : La Ville des deux Paix : La Paix celeste et la Paix terrestre

Used drive : Optiarc DVD RW AD-5280S Adapter: 4 ID: 0

Read mode : Secure
Utilize accurate stream : Yes
Defeat audio cache : Yes
Make use of C2 pointers : No

Read offset correction

: 48
Overread into Lead-In and Lead-Out : No
Fill up missing offset samples with silence : Yes
Delete leading and trailing silent blocks : No
Null samples used in CRC calculations : Yes
Used interface
: Native Win32 interface for Win NT & 2000
Gap handling
: Appended to previous track

Used output format : User Defined Encoder
Selected bitrate : 256 kBit/s
Quality : High
Add ID3 tag : No
Command line compressor : D:\Program Files\FLAC\flac.exe
Additional command line options : -8 -V -T "ARTIST=%a" -T "TITLE=%t" -T "ALBUM=%g" -T "DATE=%y" -T "TRACKNUMBER=%n" -T "TOTALTRACKS=%x" -T "GENRE=%m" -T "ALBUMARTIST=%v" -T "ALBUM ARTIST=%v" -T "COMMENT=EAC Secure Mode, Test & Copy, AccurateRip, FLAC -8" %s

TOC of the extracted CD Track | Start | Length | Start sector | End sector
--1 | 0:00.00 | 1:32.47 | 0 | 6946 2 | 1:32.47 | 8:20.24 | 6947 | 44470 3 | 9:52.71 | 1:35.09 | 44471 | 51604 4 | 11:28.05 | 1:03.70 | 51605 | 56399 5 | 12:32.00 | 1:04.43 | 56400 | 61242 6 | 13:36.43 | 4:32.53 | 61243 | 81695 7 | 18:09.21 | 1:18.32 | 81696 | 87577 8 | 19:27.53 | 0:59.69 | 87578 | 92071 9 | 20:27.47 | 5:07.01 | 92072 | 115097
10 | 25:34.48 | 2:59.23 | 115098 | 128545
11 | 28:33.71 | 5:44.49 | 128546 | 154394
12 | 34:18.45 | 1:37.41 | 154395 | 161710
13 | 35:56.11 | 4:45.37 | 161711 | 183122
14 | 40:41.48 | 1:03.01 | 183123 | 187848
15 | 41:44.49 | 3:25.29 | 187849 | 203252
16 | 45:10.03 | 1:03.59 | 203253 | 208036
17 | 46:13.62 | 2:16.38 | 208037 | 218274
18 | 48:30.25 | 5:54.27 | 218275 | 244851
19 | 54:24.52 | 6:55.51 | 244852 | 276027
20 | 61:20.28 | 2:20.67 | 276028 | 286594
21 | 63:41.20 | 1:54.47 | 286595 | 295191
22 | 65:35.67 | 5:06.40 | 295192 | 318181
23 | 70:42.32 | 7:43.43 | 318182 | 352949

Track 1 Filename J:\Jerusalem\01 - Jordi Savall - Fanfare of Jericho, 1200 B.C..wav Pre-gap length 0:00:02.00 Peak level 97.8 %
Extraction speed 1.6 X
Track quality 99.8 %
Test CRC 640AA224
Copy CRC 640AA224
Accurately ripped (confidence 5) [ABE133AD]
Copy OK

Track 2 Filename J:\Jerusalem\02 - Anonymous - The Sibylline Oracles (3rd century B.C.).wav Peak level 97.6 %
Extraction speed 3.0 X
Track quality 100.0 %
Test CRC E5310F28
Copy CRC E5310F28
Accurately ripped (confidence 5) [8066EBE1]
Copy OK

Track 3 Filename J:\Jerusalem\03 - Anonymous - Introduction.wav Peak level 24.6 %
Extraction speed 2.5 X
Track quality 100.0 %
Test CRC 1D4C9DCD
Copy CRC 1D4C9DCD
Accurately ripped (confidence 5) [A15C9D97]
Copy OK

Track 4 Filename J:\Jerusalem\04 - Anonymous - The Koran- Bismi Al.la ar Rahman (7th Century).wav Peak level 38.2 %
Extraction speed 2.2 X
Track quality 100.0 %
Test CRC 018D964B
Copy CRC 018D964B
Accurately ripped (confidence 5) [8F4A3742]
Copy OK

Track 5 Filename J:\Jerusalem\05 - Anonymous - Postludium.wav Peak level 20.7 %
Extraction speed 2.3 X
Track quality 100.0 %
Test CRC 4A80E315
Copy CRC 4A80E315
Accurately ripped (confidence 5) [A32808A2]
Copy OK

Track 6 Filename J:\Jerusalem\06 - Anonymous - Audi pontus.wav Peak level 52.9 %
Extraction speed 3.4 X
Track quality 100.0 %
Test CRC 03A2D514
Copy CRC 03A2D514
Accurately ripped (confidence 5) [93ADB514]
Copy OK

Track 7 Filename J:\Jerusalem\07 - Anonymous - Postlude.wav Peak level 27.6 %
Extraction speed 2.7 X
Track quality 100.0 %
Test CRC 90735B64
Copy CRC 90735B64
Accurately ripped (confidence 5) [9F3A14AD]
Copy OK

Track 8 Filename J:\Jerusalem\08 - Anonymous - Shofars call.wav Pre-gap length 0:00:04.14 Peak level 22.5 %
Extraction speed 2.5 X
Track quality 100.0 %
Test CRC 0944F41A
Copy CRC 0944F41A
Accurately ripped (confidence 5) [FEE979FB]
Copy OK

Track 9 Filename J:\Jerusalem\09 - Anonymous - Prayer for Jerusalem (Psalm 121).wav Peak level 56.6 %
Extraction speed 3.8 X
Track quality 100.0 %
Test CRC 41DF7DDF
Copy CRC 41DF7DDF
Accurately ripped (confidence 5) [7876CBAC]
Copy OK

Track 10 Filename J:\Jerusalem\10 - Anonymous - Instrumental dance.wav Peak level 97.2 %
Extraction speed 3.1 X
Track quality 99.9 %
Test CRC 619B3493
Copy CRC 619B3493
Accurately ripped (confidence 5) [620E53FE]
Copy OK

Track 11 Filename J:\Jerusalem\11 - Anonymous - The Peace of Jerusalem (Psalm 122).wav Peak level 62.8 %
Extraction speed 3.9 X
Track quality 99.9 %
Test CRC A207C0AC
Copy CRC A207C0AC
Accurately ripped (confidence 5) [4BB4BA0A]
Copy OK

Track 12 Filename J:\Jerusalem\12 - Anonymous - Rabbi Akiva goes to Jerusalem.wav Peak level 60.0 %
Extraction speed 3.5 X
Track quality 100.0 %
Test CRC B0A2A2EA
Copy CRC B0A2A2EA
Accurately ripped (confidence 5) [9AEAC8E7]
Copy OK

Track 13 Filename J:\Jerusalem\13 - Anonymous - Song of Exile (Psalm 137, 1-6).wav Peak level 82.5 %
Extraction speed 4.4 X
Track quality 100.0 %
Test CRC 83B9313F
Copy CRC 83B9313F
Accurately ripped (confidence 5) [5439D6F2]
Copy OK

Track 14 Filename J:\Jerusalem\14 - Anonymous - Instrumental lament.wav Peak level 36.8 %
Extraction speed 3.2 X
Track quality 100.0 %
Test CRC C1AA0344
Copy CRC C1AA0344
Accurately ripped (confidence 5) [29CDCDFD]
Copy OK

Track 15 Filename J:\Jerusalem\15 - Emperor Leo VI - Stavrotheotokia (Hymn to Virgin at the foot of the Cross).wav Pre-gap length 0:00:02.10 Peak level 60.0 %
Extraction speed 4.4 X
Track quality 100.0 %
Test CRC 7119DF2D
Copy CRC 7119DF2D
Accurately ripped (confidence 5) [F2496124]
Copy OK

Track 16 Filename J:\Jerusalem\16 - Anonymous - Fanfare ''Pax in nomine Domine''.wav Peak level 69.0 %
Extraction speed 3.2 X
Track quality 100.0 %
Test CRC DFD515E1
Copy CRC DFD515E1
Accurately ripped (confidence 4) [91905DF6]
Copy OK

Track 17 Filename J:\Jerusalem\17 - Jean Hache - Pope Urban II, first call to the Crusade, 1095.wav Peak level 96.7 %
Extraction speed 4.2 X
Track quality 100.0 %
Test CRC D6647A75
Copy CRC D6647A75
Accurately ripped (confidence 4) [8B03A0C1]
Copy OK

Track 18 Filename J:\Jerusalem\18 - Marcabru - Crusaders' song- Pax in nomine Domini.wav Peak level 94.5 %
Extraction speed 5.0 X
Track quality 100.0 %
Test CRC 36A5FE23
Copy CRC 36A5FE23
Accurately ripped (confidence 4) [5EEAB69E]
Copy OK

Track 19 Filename J:\Jerusalem\19 - Anonymous - Crusaders' song- Chevalier, mult estes guaritz, 1146.wav Peak level 97.3 %
Extraction speed 5.4 X
Track quality 100.0 %
Test CRC E5FCA1D1
Copy CRC E5FCA1D1
Accurately ripped (confidence 5) [0AA74A44]
Copy OK

Track 20 Filename J:\Jerusalem\20 - Anonymous - Conductus- O totius Asie Gloria, Regis Alexandria Filia.wav Peak level 63.9 %
Extraction speed 4.7 X
Track quality 100.0 %
Test CRC E5464855
Copy CRC E5464855
Accurately ripped (confidence 5) [2AF11051]
Copy OK

Track 21 Filename J:\Jerusalem\21 - Anonymous - Planctus ''Pax in nomine Domini''.wav Peak level 89.3 %
Extraction speed 4.5 X
Track quality 100.0 %
Test CRC BB7D5733
Copy CRC BB7D5733
Accurately ripped (confidence 5) [76C517E9]
Copy OK

Track 22 Filename J:\Jerusalem\22 - Ibn Battuta - The Dome of the Rock.wav Pre-gap length 0:00:02.51 Peak level 97.3 %
Extraction speed 5.5 X
Track quality 100.0 %
Test CRC 9C5F6F89
Copy CRC 9C5F6F89
Accurately ripped (confidence 5) [1CEFD368]
Copy OK

Track 23 Filename J:\Jerusalem\23 - Judah Ha-Levy - Zionida- Yefe Nof - Beautiful city, delight of the world.wav Peak level 91.7 %
Extraction speed 5.5 X
Track quality 99.9 %
Test CRC 86CC0D3C
Copy CRC 86CC0D3C
Accurately ripped (confidence 4) [C7811D93]
Copy OK

All tracks accurately ripped

No errors occurred

End of status report

==== Log checksum 5D88C20F633DB6020CBE952CE527820D01249A35405C6CF3E5852626276854E9 ====

Exact Audio Copy V1.0 beta 1 from 15. November 2010

EAC extraction logfile from 16. April 2013, 16:57

Various / Jerusalem : La Ville des deux Paix : La Paix celeste et la Paix terrestre

Used drive : Optiarc DVD RW AD-5280S Adapter: 4 ID: 0

Read mode : Secure
Utilize accurate stream : Yes
Defeat audio cache : Yes
Make use of C2 pointers : No

Read offset correction

: 48
Overread into Lead-In and Lead-Out : No
Fill up missing offset samples with silence : Yes
Delete leading and trailing silent blocks : No
Null samples used in CRC calculations : Yes
Used interface
: Native Win32 interface for Win NT & 2000
Gap handling
: Appended to previous track

Used output format : User Defined Encoder
Selected bitrate : 256 kBit/s
Quality : High
Add ID3 tag : No
Command line compressor : D:\Program Files\FLAC\flac.exe
Additional command line options : -8 -V -T "ARTIST=%a" -T "TITLE=%t" -T "ALBUM=%g" -T "DATE=%y" -T "TRACKNUMBER=%n" -T "TOTALTRACKS=%x" -T "GENRE=%m" -T "ALBUMARTIST=%v" -T "ALBUM ARTIST=%v" -T "COMMENT=EAC Secure Mode, Test & Copy, AccurateRip, FLAC -8" %s

TOC of the extracted CD Track | Start | Length | Start sector | End sector
--1 | 0:00.00 | 8:16.62 | 0 | 37261 2 | 8:16.62 | 3:15.41 | 37262 | 51927 3 | 11:32.28 | 1:38.24 | 51928 | 59301 4 | 13:10.52 | 5:10.53 | 59302 | 82604 5 | 18:21.30 | 6:29.21 | 82605 | 111800 6 | 24:50.51 | 3:37.27 | 111801 | 128102 7 | 28:28.03 | 2:13.01 | 128103 | 138078 8 | 30:41.04 | 4:44.61 | 138079 | 159439 9 | 35:25.65 | 7:40.28 | 159440 | 193967
10 | 43:06.18 | 3:53.02 | 193968 | 211444
11 | 46:59.20 | 3:18.73 | 211445 | 226367
12 | 50:18.18 | 4:39.58 | 226368 | 247350
13 | 54:58.01 | 1:15.22 | 247351 | 252997
14 | 56:13.23 | 1:30.30 | 252998 | 259777
15 | 57:43.53 | 0:37.39 | 259778 | 262591
16 | 58:21.17 | 0:35.18 | 262592 | 265234
17 | 58:56.35 | 1:13.15 | 265235 | 270724
18 | 60:09.50 | 0:53.47 | 270725 | 274746
19 | 61:03.22 | 1:09.53 | 274747 | 279974
20 | 62:13.00 | 0:44.05 | 279975 | 283279
21 | 62:57.05 | 0:44.09 | 283280 | 286588
22 | 63:41.14 | 0:39.57 | 286589 | 289570
23 | 64:20.71 | 0:44.32 | 289571 | 292902
24 | 65:05.28 | 1:41.18 | 292903 | 300495
25 | 66:46.46 | 1:24.03 | 300496 | 306798
26 | 68:10.49 | 3:03.23 | 306799 | 320546
27 | 71:13.72 | 0:44.03 | 320547 | 323849
28 | 71:58.00 | 0:54.46 | 323850 | 327945
29 | 72:52.46 | 1:30.05 | 327946 | 334700

Track 1 Filename J:\Jerusalem\01 - Alfonso X el Sabio - O ffondo do mar tan chao.wav Pre-gap length 0:00:02.00 Peak level 86.9 %
Extraction speed 5.6 X
Track quality 100.0 %
Test CRC 449E6D8A
Copy CRC 449E6D8A
Accurately ripped (confidence 5) [FF2F8D93]
Copy OK

Track 2 Filename J:\Jerusalem\02 - Anonymous - Prelude.wav Peak level 60.3 %
Extraction speed 5.8 X
Track quality 100.0 %
Test CRC 736E352C
Copy CRC 736E352C
Accurately ripped (confidence 5) [146EB0FB]
Copy OK

Track 3 Filename J:\Jerusalem\03 - Anonymous - The Koran, Sura XVII, 1- Mohammed ascends to heaven from Temple Mount.wav Peak level 44.2 %
Extraction speed 5.1 X
Track quality 100.0 %
Test CRC 44E9F388
Copy CRC 44E9F388
Accurately ripped (confidence 5) [3BC27428]
Copy OK

Track 4 Filename J:\Jerusalem\04 - Anonymous - Danse of the Soma.wav Peak level 87.3 %
Extraction speed 6.7 X
Track quality 100.0 %
Test CRC E3882CA4
Copy CRC E3882CA4
Accurately ripped (confidence 5) [300C6DC3]
Copy OK

Track 5 Filename J:\Jerusalem\05 - Anonymous - Sallatu Allah.wav Peak level 86.1 %
Extraction speed 7.4 X
Track quality 100.0 %
Test CRC BBE4458D
Copy CRC BBE4458D
Accurately ripped (confidence 5) [9F0241AC]
Copy OK

Track 6 Filename J:\Jerusalem\06 - Anonymous - Makam 'Uzal Sakil ''Turna''.wav Peak level 81.5 %
Extraction speed 7.3 X
Track quality 100.0 %
Test CRC 1E479780
Copy CRC 1E479780
Accurately ripped (confidence 5) [0228AEBB]
Copy OK

Track 7 Filename J:\Jerusalem\07 - Nejat Ferouse - Suleyman the Magnificent's dream, 1520.wav Peak level 67.2 %
Extraction speed 6.7 X
Track quality 100.0 %
Test CRC 71F0B376
Copy CRC 71F0B376
Accurately ripped (confidence 5) [9458DC09]
Copy OK

Track 8 Filename J:\Jerusalem\08 - Anonymous - Warrior's march.wav Peak level 100.0 %
Extraction speed 8.1 X
Track quality 100.0 %
Test CRC 14C83FA0
Copy CRC 14C83FA0
Accurately ripped (confidence 5) [0C6E2FD3]
Copy OK

Track 9 Filename J:\Jerusalem\09 - Anonymous - Palestina hermoza y Santa.wav Pre-gap length 0:00:01.66 Peak level 86.9 %
Extraction speed 9.0 X
Track quality 100.0 %
Test CRC 9F17A74C
Copy CRC 9F17A74C
Accurately ripped (confidence 5) [D7CE851F]
Copy OK

Track 10 Filename J:\Jerusalem\10 - Anonymous - Palestinian Lament.wav Peak level 43.7 %
Extraction speed 8.1 X
Track quality 100.0 %
Test CRC 4FF43323
Copy CRC 4FF43323
Accurately ripped (confidence 5) [D2A4D5D0]
Copy OK

Track 11 Filename J:\Jerusalem\11 - Anonymous - Lament for the city of Ani.wav Peak level 58.0 %
Extraction speed 8.5 X
Track quality 100.0 %
Test CRC 30877EB8
Copy CRC 30877EB8
Accurately ripped (confidence 4) [698910D5]
Copy OK

Track 12 Filename J:\Jerusalem\12 - Shlomo Katz - El male rahamim.wav Peak level 64.4 %
Extraction speed 9.1 X
Track quality 100.0 %
Test CRC 2099F958
Copy CRC 2099F958
Accurately ripped (confidence 5) [32ADF7AD]
Copy OK

Track 13 Filename J:\Jerusalem\13 - Anonymous - Funeral march.wav Peak level 19.1 %
Extraction speed 7.1 X
Track quality 100.0 %
Test CRC D6964F8E
Copy CRC D6964F8E
Accurately ripped (confidence 5) [F810CC00]
Copy OK

Track 14 Filename J:\Jerusalem\14 - Begona Olavide, Yair Dalal, Driss El Maloumi - Instrumental dialogue.wav Pre-gap length 0:00:03.30 Peak level 53.7 %
Extraction speed 7.2 X
Track quality 100.0 %
Test CRC C586B087
Copy CRC C586B087
Accurately ripped (confidence 5) [61D85976]
Copy OK

Track 15 Filename J:\Jerusalem\15 - Muwafak Shahin Khalil - A plea for peace in Arabic.wav Peak level 34.9 %
Extraction speed 1.8 X
Track quality 99.7 %
Test CRC 1945290D
Copy CRC 1945290D
Accurately ripped (confidence 5) [7F20083B]
Copy OK

Track 16 Filename J:\Jerusalem\16 - Lior Elmaleh - A plea for peace in Hebrew Adonay.wav Peak level 31.3 %
Extraction speed 5.2 X
Track quality 100.0 %
Test CRC F0DAD63E
Copy CRC F0DAD63E
Accurately ripped (confidence 5) [274C51C6]
Copy OK

Track 17 Filename J:\Jerusalem\17 - Razmik Amyan, Gaguik Mouradian - A plea for peace in Armenian.wav Peak level 47.7 %
Extraction speed 7.3 X
Track quality 100.0 %
Test CRC 158C7034
Copy CRC 158C7034
Accurately ripped (confidence 5) [E9D7D623]
Copy OK

Track 18 Filename J:\Jerusalem\18 - Daniele Carnovich, La Capella Reial de Catalunya - A plea for peace- Da Pacem (Gregorian).wav Peak level 37.4 %
Extraction speed 6.5 X
Track quality 100.0 %
Test CRC 3BE52E7A
Copy CRC 3BE52E7A
Accurately ripped (confidence 5) [73D8F203]
Copy OK

Track 19 Filename J:\Jerusalem\19 - Montserrat Figueras, Michael Grebil - Apo xeno meros (in Greek).wav Peak level 64.5 %
Extraction speed 7.4 X
Track quality 100.0 %
Test CRC 16835A9C
Copy CRC 16835A9C
Accurately ripped (confidence 5) [D14481C3]
Copy OK

Track 20 Filename J:\Jerusalem\20 - Driss El Maloumi - Ghazal (in Arabic).wav Peak level 58.7 %
Extraction speed 6.0 X
Track quality 100.0 %
Test CRC DE1C2430
Copy CRC DE1C2430
Accurately ripped (confidence 5) [6D3EDD17]
Copy OK

Track 21 Filename J:\Jerusalem\21 - Yair Dalal - Ghazal (in Hebrew).wav Peak level 52.4 %
Extraction speed 5.9 X
Track quality 100.0 %
Test CRC 62EC29F1
Copy CRC 62EC29F1
Accurately ripped (confidence 5) [86D3E3CB]
Copy OK

Track 22 Filename J:\Jerusalem\22 - Muwafak Shahin Khalil - Ghazal (Palestine).wav Peak level 78.1 %
Extraction speed 5.8 X
Track quality 100.0 %
Test CRC 00F5AE8F
Copy CRC 00F5AE8F
Accurately ripped (confidence 5) [73C38AC2]
Copy OK

Track 23 Filename J:\Jerusalem\23 - Begona Olavide - Siente Hermosa (in Ladino).wav Peak level 86.4 %
Extraction speed 6.0 X
Track quality 100.0 %
Test CRC 4AEB0661
Copy CRC 4AEB0661
Accurately ripped (confidence 5) [9B9F4764]
Copy OK

Track 24 Filename J:\Jerusalem\24 - Lluis Vilamajo, Francesc Garrigosa, David Sagastume, Daniele Carnovich - Apo xeno meros (in Greek).wav Peak level 86.0 %
Extraction speed 4.3 X
Track quality 99.8 %
Test CRC 927605F0
Copy CRC 927605F0
Accurately ripped (confidence 5) [2EED63EC]
Copy OK

Track 25 Filename J:\Jerusalem\25 - Montserrat Figueras, Arianna Savall, Jordi Savall - Durme, hermoza donzella (in Ladino).wav Peak level 86.9 %
Extraction speed 2.3 X
Track quality 99.7 %
Test CRC 65C9007A
Copy CRC 65C9007A
Accurately ripped (confidence 5) [5E9DBD43]
Copy OK

Track 26 Filename J:\Jerusalem\26 - Montserrat Figueras, Driss El Maloumi, Yair Dalal - Ghazal (in Arabic, Greek & Hebrew).wav Peak level 86.8 %
Extraction speed 4.0 X
Track quality 99.9 %
Test CRC 974EC30A
Copy CRC 974EC30A
Accurately ripped (confidence 5) [172F4B26]
Copy OK

Track 27 Filename J:\Jerusalem\27 - Anonymous - Ghazal (instrumental).wav Peak level 86.7 %
Extraction speed 3.4 X
Track quality 100.0 %
Test CRC 0D02E7CF
Copy CRC 0D02E7CF
Accurately ripped (confidence 5) [3057EE7A]
Copy OK

Track 28 Filename J:\Jerusalem\28 - La Capella Reial de Catalunya, Hesperion XXI, Al-Darwish - Final Ensemble (tutti).wav Peak level 86.9 %
Extraction speed 3.8 X
Track quality 100.0 %
Test CRC C4613DAC
Copy CRC C4613DAC
Accurately ripped (confidence 5) [2602F529]
Copy OK

Track 29 Filename J:\Jerusalem\29 - Jordi Savall - Final Fanfare ''Against the barriers of the Spirit''.wav Peak level 97.6 %
Extraction speed 4.1 X
Track quality 100.0 %
Test CRC 012CF5C8
Copy CRC 012CF5C8
Accurately ripped (confidence 4) [D589E430]
Copy OK

All tracks accurately ripped

No errors occurred

End of status report

==== Log checksum 719387713FA81D1E142A5BF4FB90BDA998D6E31A99901D2943B5A3C101EE8480 ====

Jordi Savall & Hesperion XXI - Jerusalem: La Ville des deux Paix (2008) [2CD] {Alia Vox}


All thanks goes to the original releaser!




DOWNLOAD LINKS:
Buy Premium To Support Me & Get Resumable Support & Max Speed


Links are Interchangeable - No Password - Single Extraction

Direct Download

Tags: Savall, Hesperion, Jerusalem

Jordi Savall & Hesperion XXI - Jerusalem: La Ville des deux Paix (2008) [2CD] {Alia Vox} Download via Hotfile Rapidshare Fileserve Megaupload & FileSonic, Jordi Savall & Hesperion XXI - Jerusalem: La Ville des deux Paix (2008) [2CD] {Alia Vox} free torrent downloads included crack, serial, keygen.


Attention!Information

Members of Guest cannot leave comments.