Mahler - Symphony No.3 (Mariss Jansons) (2012)

Download Now

Mahler - Symphony No.3 (Mariss Jansons) (2012)

Mahler - Symphony No.3 (Mariss Jansons) (2012) lu-ray
BluRay | BDMV | MPEG-4 AVC Video / 18997 kbps / 1080i / 29,970 fps | 103 min | 22,7 GB
Audio1: LPCM Audio / 2.0 / 24-bit | Audio2: DTS-HD Master Audio / 5.0 / 96 kHz / 6195 kbps

BluRay-rip | AVC | MKV 1920x1080 (16:9) / 9322 kbps / 29,970 fps | 103 min | 7,82GB
Audio: German / DTS / 5ch / 1509 kbps / 48.0 KHz / 24 bits
Classical | RCO Live

"A host of accomplished conductors including Daniel Harding, Daniele Gatti, Bernard Haitink and Eliahu Inbal lead the Royal Concertgebouw Orchestra in these performances of Mahler's Symphonies Nos. 1-10. Recorded in Amsterdam over two seasons in 2010/11, the collection also includes 'Das Lied von der Erde'."

Cast:
Bernarda Fink (mezzo soprano)
Netherlands Radio Choir
Boys of the Breda Sacrament Choir & Rijnmond Boys' Choir
Royal Concertgebouw Orchestra
Conductor - Mariss Jansons

Track:
Symphony No. 3:
Erste Abtheilung: I. Kräftig, Entschieden
Zweite Abtheilung: II. Tempo di Minuetto
III. Comodo, Scherzando. Ohne Hast
IV. Sehr Langsam. Misterioso. Durchaus Leise
V. Lustig im Tempo und keck im Ausdruck
VI. Langsam, Ruhevoll. Empfunden

Disc Title: MAHLER3
Disc Size: 24398300021 bytes
Protection: AACS
BD-Java: Yes
Playlist: 00002.MPLS
Size: 24387053568 bytes
Length: 1:43:06.079
Total Bitrate: 31,54 Mbps
Video: MPEG-4 AVC Video / 18997 kbps / 1080i / 29,970 fps / 16:9 / High Profile 4.1
Audio: Undetermined / LPCM Audio / 2.0 / 96 kHz / 4608 kbps / 24-bit
Audio: Undetermined / DTS-HD Master Audio / 5.0 / 96 kHz / 6195 kbps / 24-bit (DTS Core: 5.0 / 48 kHz / 1509 kbps / 24-bit)

General
Unique ID
: 213437184060302266182197958410041764087 (0xA09281A39C3224A0BAEA4CCCA82F28F7)
Complete name : D:\Video\Video\Mahler_Symphony_03.mkv
Format
: Matroska
Format version : Version 2
File size
: 7.83 GiB
Duration
: 1h 43mn
Overall bit rate : 10.9 Mbps
Movie name
: Mahler_Symphony_03
Encoded date : UTC 2015-09-16 08:23:30
Writing application

: DVDFab 9.1.6.8
Writing library : libebml v0.7.8 + libmatroska v0.8.1

Video
ID : 1
Format
: AVC
Format/Info
: Advanced Video Codec
Format profile : [email protected]
Format settings, CABAC : Yes
Format settings, ReFrames : 2 frames
Codec ID
: V_MPEG4/ISO/AVC
Duration
: 1h 43mn
Bit rate
: 9 322 Kbps
Width
: 1 920 pixels
Height
: 1 080 pixels
Display aspect ratio : 16:9
Frame rate mode : Constant
Frame rate
: 29.970 fps
Color space
: YUV
Chroma subsampling

: 4:2:0
Bit depth
: 8 bits
Scan type
: Progressive
Bits/(Pixel*Frame)

: 0.150
Stream size
: 6.58 GiB (84%)
Writing library : x264 core 142
Encoding settings: cabac=1 / ref=1 / deblock=1:-1:-1 / analyse=0x3:0 / me=hex / subme=5 / psy=0 / mixed_ref=0 / me_range=16 / chroma_me=1 / trellis=0 / 8x8dct=1 / cqm=0 / deadzone=21,11 / fast_pskip=1 / chroma_qp_offset=0 / threads=8 / lookahead_threads=2 / sliced_threads=0 / nr=0 / decimate=1 / interlaced=0 / bluray_compat=0 / constrained_intra=0 / bframes=2 / b_pyramid=0 / b_adapt=1 / b_bias=0 / direct=1 / weightb=1 / open_gop=0 / weightp=0 / keyint=24 / keyint_min=13 / scenecut=40 / intra_refresh=0 / rc=abr / mbtree=0 / bitrate=9322 / ratetol=1.0 / qcomp=0.60 / qpmin=0 / qpmax=69 / qpstep=4 / ip_ratio=1.40 / pb_ratio=1.30 / aq=1:1.00
Default
: Yes
Forced
: No
Color primaries : BT.709
Transfer characteristics : BT.709
Matrix coefficients

: BT.709
Color range
: Limited

Audio
ID : 2
Format
: DTS
Format/Info
: Digital Theater Systems
Mode
: 16
Format settings, Endianness : Big
Codec ID
: A_DTS
Duration
: 1h 43mn
Bit rate mode : Constant
Bit rate
: 1 509 Kbps
Channel(s)
: 5 channels
Channel positions: Front: L C R, Side: L R
Sampling rate : 48.0 KHz
Bit depth
: 24 bits
Compression mode : Lossy
Stream size
: 1.09 GiB (14%)
Default
: Yes
Forced
: No

Menu
00:00:00.000 : en:Chapter 01
00:35:36.033 : en:Chapter 02
00:45:49.346 : en:Chapter 03
01:03:35.344 : en:Chapter 04
01:12:36.352 : en:Chapter 05
01:16:52.608 : en:Chapter 06

All screenshots taken from BDRip

Mahler - Symphony No.3 (Mariss Jansons) (2012)




DOWNLOAD LINKS:
(Premium Recommended)

Rapidgator.net:
zihnx.MahSymRCOI.part1.rar.html
zihnx.MahSymRCOI.part2.rar.html
zihnx.MahSymRCOI.part3.rar.html
zihnx.MahSymRCOI.part4.rar.html
zihnx.MahSymRCOI.part5.rar.html
zihnx.MahSymRCOI.part6.rar.html
zihnx.MahSymRCOII.part01.rar.html
zihnx.MahSymRCOII.part02.rar.html
zihnx.MahSymRCOII.part03.rar.html
zihnx.MahSymRCOII.part04.rar.html
zihnx.MahSymRCOII.part05.rar.html
zihnx.MahSymRCOII.part06.rar.html
zihnx.MahSymRCOII.part07.rar.html
zihnx.MahSymRCOII.part08.rar.html
zihnx.MahSymRCOII.part09.rar.html
zihnx.MahSymRCOIII.part01.rar.html
zihnx.MahSymRCOIII.part02.rar.html
zihnx.MahSymRCOIII.part03.rar.html
zihnx.MahSymRCOIII.part04.rar.html
zihnx.MahSymRCOIII.part05.rar.html
zihnx.MahSymRCOIII.part06.rar.html
zihnx.MahSymRCOIII.part07.rar.html
zihnx.MahSymRCOIII.part08.rar.html
zihnx.MahSymRCOIII.part09.rar.html
zihnx.MahSymRCOIII.part10.rar.html

Uploaded.net:
zihnx.MahSymRCOI.part1.rar
zihnx.MahSymRCOI.part2.rar
zihnx.MahSymRCOI.part3.rar
zihnx.MahSymRCOI.part4.rar
zihnx.MahSymRCOI.part5.rar
zihnx.MahSymRCOI.part6.rar
zihnx.MahSymRCOII.part01.rar
zihnx.MahSymRCOII.part02.rar
zihnx.MahSymRCOII.part03.rar
zihnx.MahSymRCOII.part04.rar
zihnx.MahSymRCOII.part05.rar
zihnx.MahSymRCOII.part06.rar
zihnx.MahSymRCOII.part07.rar
zihnx.MahSymRCOII.part08.rar
zihnx.MahSymRCOII.part09.rar
zihnx.MahSymRCOIII.part01.rar
zihnx.MahSymRCOIII.part02.rar
zihnx.MahSymRCOIII.part03.rar
zihnx.MahSymRCOIII.part04.rar
zihnx.MahSymRCOIII.part05.rar
zihnx.MahSymRCOIII.part06.rar
zihnx.MahSymRCOIII.part07.rar
zihnx.MahSymRCOIII.part08.rar
zihnx.MahSymRCOIII.part09.rar
zihnx.MahSymRCOIII.part10.rar

nitroflare_com:
zihnx.MahSymRCOI.part1.rar
zihnx.MahSymRCOI.part2.rar
zihnx.MahSymRCOI.part3.rar
zihnx.MahSymRCOI.part4.rar
zihnx.MahSymRCOI.part5.rar
zihnx.MahSymRCOI.part6.rar
zihnx.MahSymRCOII.part01.rar
zihnx.MahSymRCOII.part02.rar
zihnx.MahSymRCOII.part03.rar
zihnx.MahSymRCOII.part04.rar
zihnx.MahSymRCOII.part05.rar
zihnx.MahSymRCOII.part06.rar
zihnx.MahSymRCOII.part07.rar
zihnx.MahSymRCOII.part08.rar
zihnx.MahSymRCOII.part09.rar
zihnx.MahSymRCOIII.part01.rar
zihnx.MahSymRCOIII.part02.rar
zihnx.MahSymRCOIII.part03.rar
zihnx.MahSymRCOIII.part04.rar
zihnx.MahSymRCOIII.part05.rar
zihnx.MahSymRCOIII.part06.rar
zihnx.MahSymRCOIII.part07.rar
zihnx.MahSymRCOIII.part08.rar
zihnx.MahSymRCOIII.part09.rar
zihnx.MahSymRCOIII.part10.rar

Uploadable.ch:
zihnx.MahSymRCOI.part1.rar
zihnx.MahSymRCOI.part2.rar
zihnx.MahSymRCOI.part3.rar
zihnx.MahSymRCOI.part4.rar
zihnx.MahSymRCOI.part5.rar
zihnx.MahSymRCOI.part6.rar
zihnx.MahSymRCOII.part01.rar
zihnx.MahSymRCOII.part02.rar
zihnx.MahSymRCOII.part03.rar
zihnx.MahSymRCOII.part04.rar
zihnx.MahSymRCOII.part05.rar
zihnx.MahSymRCOII.part06.rar
zihnx.MahSymRCOII.part07.rar
zihnx.MahSymRCOII.part08.rar
zihnx.MahSymRCOII.part09.rar
zihnx.MahSymRCOIII.part01.rar
zihnx.MahSymRCOIII.part02.rar
zihnx.MahSymRCOIII.part03.rar
zihnx.MahSymRCOIII.part04.rar
zihnx.MahSymRCOIII.part05.rar
zihnx.MahSymRCOIII.part06.rar
zihnx.MahSymRCOIII.part07.rar
zihnx.MahSymRCOIII.part08.rar
zihnx.MahSymRCOIII.part09.rar
zihnx.MahSymRCOIII.part10.rar

All above links are interchangable. No password

Direct Download

Tags: Mahler, Symphony, Mariss, Jansons

Mahler - Symphony No.3 (Mariss Jansons) (2012) Download via Hotfile Rapidshare Fileserve Megaupload & FileSonic, Mahler - Symphony No.3 (Mariss Jansons) (2012) free torrent downloads included crack, serial, keygen.


Attention!Information

Members of Guest cannot leave comments.