Deep Purple - ...To The Rising Sun (In Tokyo) (2015) Blu-ray New Updated

Download Now

Deep Purple - ...To The Rising Sun (In Tokyo) (2015) Blu-ray New Updated

Deep Purple - ...To The Rising Sun (In Tokyo) (2015)
Blu-ray | MPEG-4 AVC, 1920x1080i (16:9), 29,970 fps, 19999 kbps | Audio #1: DTS-HD MA 2.0, 48kHz/16-bit, 1329 kbps
Audio #2: DTS-HD MA 5.1, 48kHz/16-bit, 2547 kbps | ~ 20,9 Gb | RAR 5% Recovery
Hard Rock | 01:51:58 | Ear Music

If Wacken shows Deep Purple s performance in front of a huge rock audience, playing as if they had to leave all their habits behind, the Tokyo show is presenting Deep Purple completely at ease with their history and themselves. On the very same venue where the band has written rock history with the album Made In Japan , Deep Purple went on stage without nostalgia and with the attitude of a band that is physically led by the music, making playing a perfect show look as the most natural thing one could do. Song after song, Purple play a flawless show going back and forth in time. Deep Purple s many sides are at their best here: the energy but also the groove, the great solo moments by Don Airey and Steve Morse. The soft sides and their energetic heavy counterparts.
Filmed by 12 HD cameras and recorded by a top mobile studio, the show offers one of the most magical performances of the NOW What?! tour. Every member of the band is in fantastic form, the band being strong from a full tour together, and the performance seems to be driving the band through the song like if audience and band were suspended in time.
~ amazon

Track List:

01. Apres Vous
02. Into The Fire
03. Hard Lovin‘ Man
04. Strange Kind Of Woman
05. Vincent Price
06. Contact Lost
07. Uncommon Man
08. The Well-Dressed Guitar
09. The Mule
10. Above And Beyond
11. Lazy
12. Hell To Pay
13. Don Airey's Solo
14. Perfect Strangers
15. Space Truckin‘
16. Smoke On The Water
17. Green Onions / Hush
18. Black Night

BDINFO HOME:
Cinema Squid
http://www.cinemasquid.com/blu-ray/tools/bdinfo


INCLUDES FORUMS REPORT FOR:
AVS Forum Blu-ray Audio and Video Specifications Thread
http://www.avsforum.com/avs-vb/showthread.php?t=1155731


********************
PLAYLIST: 01004.MPLS
********************
Total Video
Title Codec Length Movie Size Disc Size Bitrate Bitrate Main Audio Track Secondary Audio Track
----- ------ ------- -------------- -------------- ------- ------- ------------------ ---------------------
01004.MPLS AVC 1:51:58 21252440064 21385932542 25,31 20,00 DTS-HD Master 2.0 1329Kbps (48kHz/16-bit) DTS-HD Master 5.1 2547Kbps (48kHz/16-bit)

DISC INFO:

Disc Title: Deep Purple ...To The Rising Sun (In Tokyo) Blu-ray
Disc Size: 21385932542 bytes
Protection: AACS
BD-Java: No
BDInfo: 0.5.8

PLAYLIST REPORT:

Name: 01004.MPLS
Length: 1:51:58.311 (h:m:s.ms)
Size: 21252440064 bytes
Total Bitrate: 25,31 Mbps

VIDEO:

Codec Bitrate Description
----- ------- -----------
MPEG-4 AVC Video 19999 kbps 1080i / 29,970 fps / 16:9 / High Profile 4.1

AUDIO:

Codec Language Bitrate Description
----- -------- ------- -----------
DTS-HD Master Audio English 1329 kbps 2.0 / 48 kHz / 1329 kbps / 16-bit (DTS Core: 2.0 / 48 kHz / 768 kbps / 16-bit / DN -4dB)
DTS-HD Master Audio English 2547 kbps 5.1 / 48 kHz / 2547 kbps / 16-bit (DTS Core: 5.1 / 48 kHz / 768 kbps / 16-bit / DN -4dB)

FILES:

Name Time In Length Size Total Bitrate
---- ------- ------ ---- -------------
00004.M2TS 0:00:00.000 1:51:57.977 21252427776 25308
00007.M2TS 1:51:57.977 0:00:00.333 12288 295

CHAPTERS:

Number Time In Length Avg Video Rate Max 1-Sec Rate Max 1-Sec Time Max 5-Sec Rate Max 5-Sec Time Max 10Sec Rate Max 10Sec Time Avg Frame Size Max Frame Size Max Frame Time
------ ------- ------ -------------- -------------- -------------- -------------- -------------- -------------- -------------- -------------- -------------- --------------
1 0:00:00.000 0:02:10.096 9574 kbps 28773 kbps 00:00:01.401 17930 kbps 00:00:01.001 15197 kbps 00:00:14.381 39920 bytes 357522 bytes 00:00:03.203
2 0:02:10.096 0:04:48.588 21047 kbps 46356 kbps 00:02:27.914 35783 kbps 00:06:51.778 30001 kbps 00:02:18.938 87782 bytes 469046 bytes 00:06:29.956
3 0:06:58.684 0:03:21.334 23703 kbps 50900 kbps 00:07:19.005 35557 kbps 00:09:34.340 30010 kbps 00:06:58.818 98861 bytes 488615 bytes 00:09:57.029
4 0:10:20.019 0:06:47.807 21654 kbps 48211 kbps 00:13:55.367 33808 kbps 00:10:26.993 30162 kbps 00:16:31.690 90315 bytes 439166 bytes 00:16:34.360
5 0:17:07.826 0:06:32.125 19668 kbps 51268 kbps 00:18:02.548 31449 kbps 00:18:07.686 28609 kbps 00:17:08.427 82034 bytes 472783 bytes 00:18:02.581
6 0:23:39.951 0:04:52.158 21407 kbps 48989 kbps 00:27:51.069 35348 kbps 00:25:44.709 32782 kbps 00:25:39.571 89286 bytes 400250 bytes 00:24:51.723
7 0:28:32.110 0:02:48.935 19983 kbps 41569 kbps 00:30:43.708 35775 kbps 00:30:50.982 32864 kbps 00:30:50.982 83346 bytes 352662 bytes 00:31:01.292
8 0:31:21.045 0:07:04.824 21035 kbps 45578 kbps 00:34:05.910 33408 kbps 00:32:38.189 29692 kbps 00:32:36.988 87740 bytes 510319 bytes 00:34:07.812
9 0:38:25.870 0:03:00.013 21775 kbps 39097 kbps 00:38:36.480 28593 kbps 00:38:33.010 27333 kbps 00:40:28.826 90819 bytes 371796 bytes 00:38:36.547
10 0:41:25.883 0:06:22.081 21163 kbps 50228 kbps 00:42:06.557 34998 kbps 00:44:10.414 32843 kbps 00:44:10.414 88266 bytes 473676 bytes 00:42:06.824
11 0:47:47.965 0:05:01.200 18753 kbps 47222 kbps 00:51:30.954 34787 kbps 00:51:30.921 29977 kbps 00:49:42.612 78214 bytes 476369 bytes 00:49:50.420
12 0:52:49.165 0:08:45.057 20290 kbps 52274 kbps 00:58:37.280 31797 kbps 01:01:17.774 27414 kbps 01:01:13.269 84626 bytes 496055 bytes 00:56:25.648
13 1:01:34.223 0:05:19.152 21335 kbps 38457 kbps 01:03:52.094 32028 kbps 01:06:33.222 28219 kbps 01:06:31.287 88985 bytes 416616 bytes 01:06:33.889
14 1:06:53.376 0:05:55.521 16769 kbps 33534 kbps 01:09:17.953 31428 kbps 01:09:17.953 28693 kbps 01:09:17.953 69941 bytes 258287 bytes 01:09:17.987
15 1:12:48.897 0:06:28.087 17799 kbps 47881 kbps 01:14:03.338 32791 kbps 01:14:24.993 28269 kbps 01:16:58.947 74235 bytes 399068 bytes 01:14:03.472
16 1:19:16.985 0:04:51.991 20652 kbps 48993 kbps 01:21:09.130 31984 kbps 01:24:00.602 26261 kbps 01:21:06.995 86135 bytes 398290 bytes 01:21:09.197
17 1:24:08.977 0:09:08.981 20194 kbps 45968 kbps 01:26:40.995 35458 kbps 01:31:07.195 32302 kbps 01:31:07.795 84224 bytes 517126 bytes 01:31:13.801
18 1:33:17.959 0:08:03.182 20118 kbps 45733 kbps 01:35:37.631 35011 kbps 01:35:37.164 28046 kbps 01:34:25.359 83910 bytes 712088 bytes 01:35:39.834
19 1:41:21.141 0:10:37.169 19359 kbps 49067 kbps 01:43:21.528 30807 kbps 01:42:16.530 26674 kbps 01:42:14.962 80746 bytes 393097 bytes 01:43:22.029

STREAM DIAGNOSTICS:

File PID Type Codec Language Seconds Bitrate Bytes Packets
---- --- ---- ----- -------- -------------- -------------- ------------- -----
00004.M2TS 4113 (0x1011) 0x1B AVC 6717,878 20000 16794744215 91393718
00004.M2TS 4352 (0x1100) 0x86 DTS-HD MA eng (English) 6717,878 1330 1116448056 6723474
00004.M2TS 4353 (0x1101) 0x86 DTS-HD MA eng (English) 6717,878 2547 2138750416 12274006
00007.M2TS 4113 (0x1011) 0x1B AVC 0,200 181 4535 32

QUICK SUMMARY:

Disc Title: Deep Purple ...To The Rising Sun (In Tokyo) Blu-ray
Disc Size: 21385932542 bytes
Protection: AACS
BD-Java: No
Playlist: 01004.MPLS
Size: 21252440064 bytes
Length: 1:51:58.311
Total Bitrate: 25,31 Mbps
Video: MPEG-4 AVC Video / 19999 kbps / 1080i / 29,970 fps / 16:9 / High Profile 4.1
Audio: English / DTS-HD Master Audio / 2.0 / 48 kHz / 1329 kbps / 16-bit (DTS Core: 2.0 / 48 kHz / 768 kbps / 16-bit / DN -4dB)
Audio: English / DTS-HD Master Audio / 5.1 / 48 kHz / 2547 kbps / 16-bit (DTS Core: 5.1 / 48 kHz / 768 kbps / 16-bit / DN -4dB)

********************
PLAYLIST: 00004.MPLS
********************
Total Video
Title Codec Length Movie Size Disc Size Bitrate Bitrate Main Audio Track Secondary Audio Track
----- ------ ------- -------------- -------------- ------- ------- ------------------ ---------------------
00004.MPLS AVC 1:51:57 21252427776 21385932542 25,31 20,00 DTS-HD Master 2.0 1330Kbps (48kHz/16-bit) DTS-HD Master 5.1 2547Kbps (48kHz/16-bit)

DISC INFO:

Disc Title: Deep Purple ...To The Rising Sun (In Tokyo) Blu-ray
Disc Size: 21385932542 bytes
Protection: AACS
BD-Java: No
BDInfo: 0.5.8

PLAYLIST REPORT:

Name: 00004.MPLS
Length: 1:51:57.977 (h:m:s.ms)
Size: 21252427776 bytes
Total Bitrate: 25,31 Mbps

VIDEO:

Codec Bitrate Description
----- ------- -----------
MPEG-4 AVC Video 20000 kbps 1080i / 29,970 fps / 16:9 / High Profile 4.1

AUDIO:

Codec Language Bitrate Description
----- -------- ------- -----------
DTS-HD Master Audio English 1330 kbps 2.0 / 48 kHz / 1330 kbps / 16-bit (DTS Core: 2.0 / 48 kHz / 768 kbps / 16-bit / DN -4dB)
DTS-HD Master Audio English 2547 kbps 5.1 / 48 kHz / 2547 kbps / 16-bit (DTS Core: 5.1 / 48 kHz / 768 kbps / 16-bit / DN -4dB)

FILES:

Name Time In Length Size Total Bitrate
---- ------- ------ ---- -------------
00004.M2TS 0:00:00.000 1:51:57.977 21252427776 25308

CHAPTERS:

Number Time In Length Avg Video Rate Max 1-Sec Rate Max 1-Sec Time Max 5-Sec Rate Max 5-Sec Time Max 10Sec Rate Max 10Sec Time Avg Frame Size Max Frame Size Max Frame Time
------ ------- ------ -------------- -------------- -------------- -------------- -------------- -------------- -------------- -------------- -------------- --------------
1 0:00:00.000 1:51:57.977 20000 kbps 52274 kbps 00:58:37.280 35783 kbps 00:06:51.778 32864 kbps 00:30:50.982 83416 bytes 712088 bytes 01:35:39.834

STREAM DIAGNOSTICS:

File PID Type Codec Language Seconds Bitrate Bytes Packets
---- --- ---- ----- -------- -------------- -------------- ------------- -----
00004.M2TS 4113 (0x1011) 0x1B AVC 6717,878 20000 16794744215 91393718
00004.M2TS 4352 (0x1100) 0x86 DTS-HD MA eng (English) 6717,878 1330 1116448056 6723474
00004.M2TS 4353 (0x1101) 0x86 DTS-HD MA eng (English) 6717,878 2547 2138750416 12274006

QUICK SUMMARY:

Disc Title: Deep Purple ...To The Rising Sun (In Tokyo) Blu-ray
Disc Size: 21385932542 bytes
Protection: AACS
BD-Java: No
Playlist: 00004.MPLS
Size: 21252427776 bytes
Length: 1:51:57.977
Total Bitrate: 25,31 Mbps
Video: MPEG-4 AVC Video / 20000 kbps / 1080i / 29,970 fps / 16:9 / High Profile 4.1
Audio: English / DTS-HD Master Audio / 2.0 / 48 kHz / 1330 kbps / 16-bit (DTS Core: 2.0 / 48 kHz / 768 kbps / 16-bit / DN -4dB)
Audio: English / DTS-HD Master Audio / 5.1 / 48 kHz / 2547 kbps / 16-bit (DTS Core: 5.1 / 48 kHz / 768 kbps / 16-bit / DN -4dB)

Deep Purple - ...To The Rising Sun (In Tokyo) (2015) Blu-ray New Updated

Deep Purple - ...To The Rising Sun (In Tokyo) (2015) Blu-ray New Updated

Deep Purple - ...To The Rising Sun (In Tokyo) (2015) Blu-ray New Updated

Deep Purple - ...To The Rising Sun (In Tokyo) (2015) Blu-ray New Updated

Deep Purple - ...To The Rising Sun (In Tokyo) (2015) Blu-ray New Updated

Deep Purple - ...To The Rising Sun (In Tokyo) (2015) Blu-ray New Updated

Deep Purple - ...To The Rising Sun (In Tokyo) (2015) Blu-ray New Updated

See also:

All thanks go to meloman67

Download:


Buy Premium Account To Get Resumable Support & Max Speed

DOWNLOAD LINK

Nitroflare:
a0v7r.Deep.Purple.To.The.Rising.Sun.In.Tokyo.2015.Bluray.part01.rar
a0v7r.Deep.Purple.To.The.Rising.Sun.In.Tokyo.2015.Bluray.part02.rar
a0v7r.Deep.Purple.To.The.Rising.Sun.In.Tokyo.2015.Bluray.part03.rar
a0v7r.Deep.Purple.To.The.Rising.Sun.In.Tokyo.2015.Bluray.part04.rar
a0v7r.Deep.Purple.To.The.Rising.Sun.In.Tokyo.2015.Bluray.part05.rar
a0v7r.Deep.Purple.To.The.Rising.Sun.In.Tokyo.2015.Bluray.part06.rar
a0v7r.Deep.Purple.To.The.Rising.Sun.In.Tokyo.2015.Bluray.part07.rar
a0v7r.Deep.Purple.To.The.Rising.Sun.In.Tokyo.2015.Bluray.part08.rar
a0v7r.Deep.Purple.To.The.Rising.Sun.In.Tokyo.2015.Bluray.part09.rar
a0v7r.Deep.Purple.To.The.Rising.Sun.In.Tokyo.2015.Bluray.part10.rar
a0v7r.Deep.Purple.To.The.Rising.Sun.In.Tokyo.2015.Bluray.part11.rar
a0v7r.Deep.Purple.To.The.Rising.Sun.In.Tokyo.2015.Bluray.part12.rar
a0v7r.Deep.Purple.To.The.Rising.Sun.In.Tokyo.2015.Bluray.part13.rar
a0v7r.Deep.Purple.To.The.Rising.Sun.In.Tokyo.2015.Bluray.part14.rar
a0v7r.Deep.Purple.To.The.Rising.Sun.In.Tokyo.2015.Bluray.part15.rar
a0v7r.Deep.Purple.To.The.Rising.Sun.In.Tokyo.2015.Bluray.part16.rar
a0v7r.Deep.Purple.To.The.Rising.Sun.In.Tokyo.2015.Bluray.part17.rar
a0v7r.Deep.Purple.To.The.Rising.Sun.In.Tokyo.2015.Bluray.part18.rar
a0v7r.Deep.Purple.To.The.Rising.Sun.In.Tokyo.2015.Bluray.part19.rar
a0v7r.Deep.Purple.To.The.Rising.Sun.In.Tokyo.2015.Bluray.part20.rar
a0v7r.Deep.Purple.To.The.Rising.Sun.In.Tokyo.2015.Bluray.part21.rar
a0v7r.Deep.Purple.To.The.Rising.Sun.In.Tokyo.2015.Bluray.part22.rar
a0v7r.Deep.Purple.To.The.Rising.Sun.In.Tokyo.2015.Bluray.part23.rar
a0v7r.Deep.Purple.To.The.Rising.Sun.In.Tokyo.2015.Bluray.part24.rar
a0v7r.Deep.Purple.To.The.Rising.Sun.In.Tokyo.2015.Bluray.part25.rar
a0v7r.Deep.Purple.To.The.Rising.Sun.In.Tokyo.2015.Bluray.part26.rar
a0v7r.Deep.Purple.To.The.Rising.Sun.In.Tokyo.2015.Bluray.part27.rar
a0v7r.Deep.Purple.To.The.Rising.Sun.In.Tokyo.2015.Bluray.part28.rar
a0v7r.Deep.Purple.To.The.Rising.Sun.In.Tokyo.2015.Bluray.part29.rar
a0v7r.Deep.Purple.To.The.Rising.Sun.In.Tokyo.2015.Bluray.part30.rar
a0v7r.Deep.Purple.To.The.Rising.Sun.In.Tokyo.2015.Bluray.part31.rar
a0v7r.Deep.Purple.To.The.Rising.Sun.In.Tokyo.2015.Bluray.part32.rar
a0v7r.Deep.Purple.To.The.Rising.Sun.In.Tokyo.2015.Bluray.part33.rar
a0v7r.Deep.Purple.To.The.Rising.Sun.In.Tokyo.2015.Bluray.part34.rar
a0v7r.Deep.Purple.To.The.Rising.Sun.In.Tokyo.2015.Bluray.part35.rar
a0v7r.Deep.Purple.To.The.Rising.Sun.In.Tokyo.2015.Bluray.part36.rar
a0v7r.Deep.Purple.To.The.Rising.Sun.In.Tokyo.2015.Bluray.part37.rar
a0v7r.Deep.Purple.To.The.Rising.Sun.In.Tokyo.2015.Bluray.part38.rar
a0v7r.Deep.Purple.To.The.Rising.Sun.In.Tokyo.2015.Bluray.part39.rar
a0v7r.Deep.Purple.To.The.Rising.Sun.In.Tokyo.2015.Bluray.part40.rar
a0v7r.Deep.Purple.To.The.Rising.Sun.In.Tokyo.2015.Bluray.part41.rar
a0v7r.Deep.Purple.To.The.Rising.Sun.In.Tokyo.2015.Bluray.part42.rar

uploadeble.ch:
a0v7r.Deep.Purple.To.The.Rising.Sun.In.Tokyo.2015.Bluray.part01.rar
a0v7r.Deep.Purple.To.The.Rising.Sun.In.Tokyo.2015.Bluray.part02.rar
a0v7r.Deep.Purple.To.The.Rising.Sun.In.Tokyo.2015.Bluray.part03.rar
a0v7r.Deep.Purple.To.The.Rising.Sun.In.Tokyo.2015.Bluray.part04.rar
a0v7r.Deep.Purple.To.The.Rising.Sun.In.Tokyo.2015.Bluray.part05.rar
a0v7r.Deep.Purple.To.The.Rising.Sun.In.Tokyo.2015.Bluray.part06.rar
a0v7r.Deep.Purple.To.The.Rising.Sun.In.Tokyo.2015.Bluray.part07.rar
a0v7r.Deep.Purple.To.The.Rising.Sun.In.Tokyo.2015.Bluray.part08.rar
a0v7r.Deep.Purple.To.The.Rising.Sun.In.Tokyo.2015.Bluray.part09.rar
a0v7r.Deep.Purple.To.The.Rising.Sun.In.Tokyo.2015.Bluray.part10.rar
a0v7r.Deep.Purple.To.The.Rising.Sun.In.Tokyo.2015.Bluray.part11.rar
a0v7r.Deep.Purple.To.The.Rising.Sun.In.Tokyo.2015.Bluray.part12.rar
a0v7r.Deep.Purple.To.The.Rising.Sun.In.Tokyo.2015.Bluray.part13.rar
a0v7r.Deep.Purple.To.The.Rising.Sun.In.Tokyo.2015.Bluray.part14.rar
a0v7r.Deep.Purple.To.The.Rising.Sun.In.Tokyo.2015.Bluray.part15.rar
a0v7r.Deep.Purple.To.The.Rising.Sun.In.Tokyo.2015.Bluray.part16.rar
a0v7r.Deep.Purple.To.The.Rising.Sun.In.Tokyo.2015.Bluray.part17.rar
a0v7r.Deep.Purple.To.The.Rising.Sun.In.Tokyo.2015.Bluray.part18.rar
a0v7r.Deep.Purple.To.The.Rising.Sun.In.Tokyo.2015.Bluray.part19.rar
a0v7r.Deep.Purple.To.The.Rising.Sun.In.Tokyo.2015.Bluray.part20.rar
a0v7r.Deep.Purple.To.The.Rising.Sun.In.Tokyo.2015.Bluray.part21.rar
a0v7r.Deep.Purple.To.The.Rising.Sun.In.Tokyo.2015.Bluray.part22.rar
a0v7r.Deep.Purple.To.The.Rising.Sun.In.Tokyo.2015.Bluray.part23.rar
a0v7r.Deep.Purple.To.The.Rising.Sun.In.Tokyo.2015.Bluray.part24.rar
a0v7r.Deep.Purple.To.The.Rising.Sun.In.Tokyo.2015.Bluray.part25.rar
a0v7r.Deep.Purple.To.The.Rising.Sun.In.Tokyo.2015.Bluray.part26.rar
a0v7r.Deep.Purple.To.The.Rising.Sun.In.Tokyo.2015.Bluray.part27.rar
a0v7r.Deep.Purple.To.The.Rising.Sun.In.Tokyo.2015.Bluray.part28.rar
a0v7r.Deep.Purple.To.The.Rising.Sun.In.Tokyo.2015.Bluray.part29.rar
a0v7r.Deep.Purple.To.The.Rising.Sun.In.Tokyo.2015.Bluray.part30.rar
a0v7r.Deep.Purple.To.The.Rising.Sun.In.Tokyo.2015.Bluray.part31.rar
a0v7r.Deep.Purple.To.The.Rising.Sun.In.Tokyo.2015.Bluray.part32.rar
a0v7r.Deep.Purple.To.The.Rising.Sun.In.Tokyo.2015.Bluray.part33.rar
a0v7r.Deep.Purple.To.The.Rising.Sun.In.Tokyo.2015.Bluray.part34.rar
a0v7r.Deep.Purple.To.The.Rising.Sun.In.Tokyo.2015.Bluray.part35.rar
a0v7r.Deep.Purple.To.The.Rising.Sun.In.Tokyo.2015.Bluray.part36.rar
a0v7r.Deep.Purple.To.The.Rising.Sun.In.Tokyo.2015.Bluray.part37.rar
a0v7r.Deep.Purple.To.The.Rising.Sun.In.Tokyo.2015.Bluray.part38.rar
a0v7r.Deep.Purple.To.The.Rising.Sun.In.Tokyo.2015.Bluray.part39.rar
a0v7r.Deep.Purple.To.The.Rising.Sun.In.Tokyo.2015.Bluray.part40.rar
a0v7r.Deep.Purple.To.The.Rising.Sun.In.Tokyo.2015.Bluray.part41.rar
a0v7r.Deep.Purple.To.The.Rising.Sun.In.Tokyo.2015.Bluray.part42.rar
Links are Interchangeable - No Password - Single Extraction

Direct Download

Tags: Purple, Rising, Updated

Deep Purple - ...To The Rising Sun (In Tokyo) (2015) Blu-ray New Updated Download via Hotfile Rapidshare Fileserve Megaupload & FileSonic, Deep Purple - ...To The Rising Sun (In Tokyo) (2015) Blu-ray New Updated free torrent downloads included crack, serial, keygen.


Attention!Information

Members of Guest cannot leave comments.