Everly Brothers - The Definitive Everly Brothers (2002)

Download Now

Everly Brothers - The Definitive Everly Brothers (2002)

Everly Brothers - The Definitive Everly Brothers (2002)
Rock | 2cd | EAC Rip | Ape + Cue + Log | covers
Warner 0927-47304-2 | rel: 2002 | 720Mb

The close, two-part harmonies of brothers Don & Phil Everly -- coupled with a deep country background and a sharp, melodic pop sense -- yielded several huge hits for the duo in the late '50s and early '60s. Following some early country-styled recordings for Columbia Records, the Everly Brothers moved on to Cadence Records, where they added some pop sheen to their Appalachian-derived harmony vocals and, thanks to a Boudleaux & Felice Bryant song that cruised along on a shave-and-a-haircut rhythm, had a massive hit in 1957 with "Bye Bye Love," the first of several hits the brothers would score for Cadence in the next three years before departing for Warner Bros. in 1960.
They had some big songs with Warner, as well, including "Cathy's Clown" and "Walk Right Back," and throughout those gorgeous harmonies were at the center of everything. This two-disc set spans the Everly Brothers' time with both Cadence and Warner, making it an ideal introduction to the duo's commercial peak. The inclusion of the Paul McCartney-penned "On the Wings of a Nightingale" is a nice plus. ~Allmusic

Track listing
cd1:
01. Bye Bye Love (2:24)
02. I Wonder If I Care As Much (2:16)
03. Wake Up Little Suzi (2:07)
04. Maybe Tomorrow (2:11)
05. All I Have To Do Is Dream (2:22)
06. Claudette (2:14)
07. Bird Dog (2:18)
08. Devoted To You (2:25)
09. Problems (1:59)
10. Poor Jenny (2:19)
11. Take A Message To Mary (2:28)
12. ('til) I Kissed You (2:27)
13. Let It Be Me (2:38)
14. Since You Broke My Heart (1:58)
15. Cathy's Clown (2:27)
16. When Will I Be Loved (2:05)
17. Love Hurts (2:24)
18. Lucille (2:33)
19. So Sad (To Watch Good Love Go Bad) (2:36)
20. Like Strangers (2:04)
21. Sleepless Nights (2:25)
22. Walk Right Back (2:20)
23. Ebony Eyes (3:08)
24. Temptation (2:15)
25. Muskrat (2:21)
26. Don't Blame Me (2:24)
~ (61:05)

cd2:
01. Crying In The Rain (2:01)
02. How Can I Meet Her (1:51)
03. No One Can Make My Sunshine Smile (2:07)
04. (So It Was...So It Is) So It Always Will Be (1:56)
05. It's Been Nice (Goodnight) (2:07)
06. The Girl Sang The Blues (2:12)
07. Love Her (2:20)
08. The Ferris Wheel (2:19)
09. Gone, Gone, Gone (2:06)
10. That'll Be The Day (2:21)
11. The Price Of Love (2:07)
12. I'll Never Get Over You (2:09)
13. Love Is Strange (2:53)
14. It's All Over (2:20)
15. Bowling Green (2:48)
16. It's My Time (2:57)
17. Empty Boxes (2:47)
18. Lord Of The Manor (4:50)
19. Milk Train (2:50)
20. Yves (3:34)
21. Stories We Could Tell (3:22)
22. Green River (4:43)
23. Lay It Down (3:17)
24. On The Wings Of A Nightingale (2:35)
~ (64:33)

Exact Audio Copy V0.99 prebeta 4 from 23. January 2008

Отчёт EAC об извлечении, выполненном 21. февраля 2009, 18:36

Everly Brothers / The Definitive (Disc 1)

Дисковод: PLEXTOR DVDR PX-716A Adapter: 1 ID: 0

Режим чтения : Достоверность
Использование точного потока : Да
Отключение кэша аудио : Да
Использование указателей C2 : Нет

Коррекция смещения при чтении : 30
Способность читать области Lead-in и Lead-out : Да
Заполнение пропущенных сэмплов тишиной : Да
Удаление блоков с тишиной в начале и конце : Нет
При вычислениях CRC использовались нулевые сэмплы : Да
Интерфейс : Встроенный Win32-интерфейс для Win NT/2000

Выходной формат : Monkey's Audio (без потерь)
Выбранный битрейт : Normal Lossless Compression
Качество : Высокий
Добавление ID3-тэга : Нет
Утилита сжатия : C:\Program Files\Exact Audio Copy\MAC.exe

TOC извлечённого CD Трек | Старт | Длительность | Начальный сектор | Конечный сектор

1 | 0:00.00 | 2:24.22 | 0 | 10821
2 | 2:24.22 | 2:15.63 | 10822 | 21009
3 | 4:40.10 | 2:06.47 | 21010 | 30506
4 | 6:46.57 | 2:10.70 | 30507 | 40326
5 | 8:57.52 | 2:21.43 | 40327 | 50944
6 | 11:19.20 | 2:13.60 | 50945 | 60979
7 | 13:33.05 | 2:17.42 | 60980 | 71296
8 | 15:50.47 | 2:25.08 | 71297 | 82179
9 | 18:15.55 | 1:58.42 | 82180 | 91071
10 | 20:14.22 | 2:18.65 | 91072 | 101486
11 | 22:33.12 | 2:28.15 | 101487 | 112601
12 | 25:01.27 | 2:26.55 | 112602 | 123606
13 | 27:28.07 | 2:38.13 | 123607 | 135469
14 | 30:06.20 | 1:57.45 | 135470 | 144289
15 | 32:03.65 | 2:26.70 | 144290 | 155309
16 | 34:30.60 | 2:05.10 | 155310 | 164694
17 | 36:35.70 | 2:23.45 | 164695 | 175464
18 | 38:59.40 | 2:32.52 | 175465 | 186916
19 | 41:32.17 | 2:36.00 | 186917 | 198616
20 | 44:08.17 | 2:04.23 | 198617 | 207939
21 | 46:12.40 | 2:24.60 | 207940 | 218799
22 | 48:37.25 | 2:19.50 | 218800 | 229274
23 | 50:57.00 | 3:07.60 | 229275 | 243359
24 | 54:04.60 | 2:15.00 | 243360 | 253484
25 | 56:19.60 | 2:21.10 | 253485 | 264069
26 | 58:40.70 | 2:24.15 | 264070 | 274884

Характеристики диапазона извлечения и сообщения об ошибках

Выбранный диапазон Имя файла D:\1\Everly Brothers - The Definitive (Disc 1).wav Пиковый уровень 97.2 %
Качество диапазона 100.0 %
CRC теста E228A27B
CRC копии E228A27B
Копирование... OK

Ошибок не произошло


AccurateRip: сводка

Трек 1 точное извлечение (доверие 5) [9B4F09E3]
Трек 2 точное извлечение (доверие 5) [023CFCE9]
Трек 3 точное извлечение (доверие 5) [755336FF]
Трек 4 точное извлечение (доверие 5) [D41E8673]
Трек 5 точное извлечение (доверие 5) [7CD68092]
Трек 6 точное извлечение (доверие 5) 60CFEE1
Трек 7 точное извлечение (доверие 5) [ABB787F1]
Трек 8 точное извлечение (доверие 5) [74EECF38]
Трек 9 точное извлечение (доверие 5) [E7596DB3]
Трек 10 точное извлечение (доверие 5) DEC2189
Трек 11 точное извлечение (доверие 5) [8A039068]
Трек 12 точное извлечение (доверие 5) [75738C1C]
Трек 13 точное извлечение (доверие 5) [1326DBB7]
Трек 14 точное извлечение (доверие 5) [A27CD473]
Трек 15 точное извлечение (доверие 5) [EC29D956]
Трек 16 точное извлечение (доверие 5) [5C5D28F0]
Трек 17 точное извлечение (доверие 5) 8DE3419
Трек 18 точное извлечение (доверие 5) [73A69D58]
Трек 19 точное извлечение (доверие 5) [59074433]
Трек 20 точное извлечение (доверие 5) [F46DC8AC]
Трек 21 точное извлечение (доверие 5) [CDB13C4A]
Трек 22 точное извлечение (доверие 5) [E5D93C35]
Трек 23 точное извлечение (доверие 5) [3A1673D6]
Трек 24 точное извлечение (доверие 5) [975D28E5]
Трек 25 точное извлечение (доверие 5) [F11BCAD7]
Трек 26 точное извлечение (доверие 4) [2CE8D0DA]

Все треки извлечены точно

Конец отчёта
-

Exact Audio Copy V0.99 prebeta 4 from 23. January 2008

Отчёт EAC об извлечении, выполненном 21. февраля 2009, 18:58

Everly Brothers / The Definitive (Disc 2)

Дисковод: PLEXTOR DVDR PX-716A Adapter: 1 ID: 0

Режим чтения : Достоверность
Использование точного потока : Да
Отключение кэша аудио : Да
Использование указателей C2 : Нет

Коррекция смещения при чтении : 30
Способность читать области Lead-in и Lead-out : Да
Заполнение пропущенных сэмплов тишиной : Да
Удаление блоков с тишиной в начале и конце : Нет
При вычислениях CRC использовались нулевые сэмплы : Да
Интерфейс : Встроенный Win32-интерфейс для Win NT/2000

Выходной формат : Monkey's Audio (без потерь)
Выбранный битрейт : Normal Lossless Compression
Качество : Высокий
Добавление ID3-тэга : Нет
Утилита сжатия : C:\Program Files\Exact Audio Copy\MAC.exe

TOC извлечённого CD Трек | Старт | Длительность | Начальный сектор | Конечный сектор

1 | 0:00.00 | 2:01.37 | 0 | 9111
2 | 2:01.37 | 1:51.13 | 9112 | 17449
3 | 3:52.50 | 2:07.12 | 17450 | 26986
4 | 5:59.62 | 1:55.48 | 26987 | 35659
5 | 7:55.35 | 2:07.05 | 35660 | 45189
6 | 10:02.40 | 2:12.05 | 45190 | 55094
7 | 12:14.45 | 2:20.27 | 55095 | 65621
8 | 14:34.72 | 2:19.20 | 65622 | 76066
9 | 16:54.17 | 2:05.38 | 76067 | 85479
10 | 18:59.55 | 2:20.55 | 85480 | 96034
11 | 21:20.35 | 2:07.27 | 96035 | 105586
12 | 23:27.62 | 2:09.10 | 105587 | 115271
13 | 25:36.72 | 2:53.23 | 115272 | 128269
14 | 28:30.20 | 2:19.45 | 128270 | 138739
15 | 30:49.65 | 2:48.20 | 138740 | 151359
16 | 33:38.10 | 2:56.55 | 151360 | 164614
17 | 36:34.65 | 2:46.45 | 164615 | 177109
18 | 39:21.35 | 4:50.15 | 177110 | 198874
19 | 44:11.50 | 2:49.55 | 198875 | 211604
20 | 47:01.30 | 3:34.25 | 211605 | 227679
21 | 50:35.55 | 3:21.67 | 227680 | 242821
22 | 53:57.47 | 4:43.25 | 242822 | 264071
23 | 58:40.72 | 3:17.33 | 264072 | 278879
24 | 61:58.30 | 2:35.02 | 278880 | 290506

Характеристики диапазона извлечения и сообщения об ошибках

Выбранный диапазон Имя файла D:\1\Everly Brothers - The Definitive (Disc 2).wav Пиковый уровень 99.1 %
Качество диапазона 100.0 %
CRC теста 0493BAF1
CRC копии 0493BAF1
Копирование... OK

Ошибок не произошло


AccurateRip: сводка

Трек 1 нет в базе данных
Трек 2 нет в базе данных
Трек 3 нет в базе данных
Трек 4 нет в базе данных
Трек 5 нет в базе данных
Трек 6 нет в базе данных
Трек 7 нет в базе данных
Трек 8 нет в базе данных
Трек 9 нет в базе данных
Трек 10 нет в базе данных
Трек 11 нет в базе данных
Трек 12 нет в базе данных
Трек 13 нет в базе данных
Трек 14 нет в базе данных
Трек 15 нет в базе данных
Трек 16 нет в базе данных
Трек 17 нет в базе данных
Трек 18 нет в базе данных
Трек 19 нет в базе данных
Трек 20 нет в базе данных
Трек 21 нет в базе данных
Трек 22 нет в базе данных
Трек 23 нет в базе данных
Трек 24 нет в базе данных

Ни одного трека нет в базе AccurateRip

Конец отчёта

[CUETools log; Date: 2015.09.21. 14:26:22; Version: 2.1.5]
[CTDB TOCID: 0_1GTK3B.ha8RZ854QzFWlCcZKE-] found.
Track | CTDB Status
1 | (14/15) Accurately ripped
2 | (15/15) Accurately ripped
3 | (15/15) Accurately ripped
4 | (15/15) Accurately ripped
5 | (15/15) Accurately ripped
6 | (15/15) Accurately ripped
7 | (15/15) Accurately ripped
8 | (15/15) Accurately ripped
9 | (15/15) Accurately ripped
10 | (15/15) Accurately ripped
11 | (15/15) Accurately ripped
12 | (15/15) Accurately ripped
13 | (15/15) Accurately ripped
14 | (15/15) Accurately ripped
15 | (15/15) Accurately ripped
16 | (15/15) Accurately ripped
17 | (15/15) Accurately ripped
18 | (15/15) Accurately ripped
19 | (15/15) Accurately ripped
20 | (15/15) Accurately ripped
21 | (14/15) Accurately ripped
22 | (15/15) Accurately ripped
23 | (15/15) Accurately ripped
24 | (15/15) Accurately ripped
25 | (15/15) Accurately ripped
26 | (14/15) Accurately ripped
[AccurateRip ID: 0037af87-0413713f-700e511a] found.
Track [ CRC | V2 ] Status
01 [9b4f09e3|dfa722aa] (21+23/53) Accurately ripped
02 [023cfce9|9239de54] (21+23/53) Accurately ripped
03 [755336ff|7d5e8dc5] (21+23/54) Accurately ripped
04 [d41e8673|d892b3d2] (21+23/54) Accurately ripped
05 [7cd68092|43bf36e4] (21+23/54) Accurately ripped
06 60cfee1|cb92d76a (21+23/54) Accurately ripped
07 [abb787f1|ab392ecc] (21+23/54) Accurately ripped
08 [74eecf38|310546ae] (21+23/54) Accurately ripped
09 [e7596db3|7b67a964] (21+23/54) Accurately ripped
10 dec2189|4ea655a7 (21+23/54) Accurately ripped
11 [8a039068|f22aba40] (21+23/54) Accurately ripped
12 [75738c1c|6e89379d] (22+23/55) Accurately ripped
13 [1326dbb7|56e935de] (21+23/54) Accurately ripped
14 [a27cd473|59d3a363] (21+23/54) Accurately ripped
15 [ec29d956|a6f7d0f1] (21+23/54) Accurately ripped
16 [5c5d28f0|15b8d520] (21+23/54) Accurately ripped
17 8de3419|2bc3c4e2 (21+23/54) Accurately ripped
18 [73a69d58|7281ddf6] (21+23/54) Accurately ripped
19 [59074433|14617035] (21+23/54) Accurately ripped
20 [f46dc8ac|4c030723] (21+23/54) Accurately ripped
21 [cdb13c4a|77e4757d] (21+23/54) Accurately ripped
22 [e5d93c35|901dcdb0] (21+23/54) Accurately ripped
23 [3a1673d6|8220670f] (21+22/53) Accurately ripped
24 [975d28e5|5bc9199d] (21+22/53) Accurately ripped
25 [f11bcad7|0cdc64af] (21+22/53) Accurately ripped
26 [2ce8d0da|7810df7b] (19+22/51) Accurately ripped
Offsetted by -1999:
01 [22bf58a6] (04/53) Accurately ripped
02 [4e5b859a] (04/53) Accurately ripped
03 [39ff7bfc] (05/54) Accurately ripped
04 [2b5eecd4] (05/54) Accurately ripped
05 [cdd5f211] (05/54) Accurately ripped
06 [9c14f320] (05/54) Accurately ripped
07 [1b6052d0] (05/54) Accurately ripped
08 [8380d42c] (05/54) Accurately ripped
09 [9d7c6bdf] (05/54) Accurately ripped
10 [db218b53] (05/54) Accurately ripped
11 [7fd19189] (05/54) Accurately ripped
12 [919e4f96] (05/55) Accurately ripped
13 [474f2fe6] (05/54) Accurately ripped
14 [9e98af28] (05/54) Accurately ripped
15 [dc6dd358] (05/54) Accurately ripped
16 [250a3362] (05/54) Accurately ripped
17 [d4644886] (05/54) Accurately ripped
18 [f7fcc61e] (05/54) Accurately ripped
19 [7166c9e1] (05/54) Accurately ripped
20 [730f3946] (05/54) Accurately ripped
21 [f1b329ff] (05/54) Accurately ripped
22 [cac48831] (05/54) Accurately ripped
23 [25692ed9] (05/53) Accurately ripped
24 [4cb560fc] (05/53) Accurately ripped
25 [491e5838] (05/53) Accurately ripped
26 [7d3c8c35] (05/51) Accurately ripped
Offsetted by -658:
01 [82bc5ccd] (00/53) No match (V2 was not tested)
02 [ebc84157] (00/53) No match (V2 was not tested)
03 [1f134895] (00/54) No match (V2 was not tested)
04 [ce224e81] (00/54) No match (V2 was not tested)
05 [9c5daec4] (00/54) No match (V2 was not tested)
06 [cb15e393] (00/54) No match (V2 was not tested)
07 [6568e163] (00/54) No match (V2 was not tested)
08 [9db70390] (00/54) No match (V2 was not tested)
09 [ef907d1b] (00/54) No match (V2 was not tested)
10 [94913e15] (00/54) No match (V2 was not tested)
11 [cc325ef6] (00/54) No match (V2 was not tested)
12 [f926f448] (00/55) No match (V2 was not tested)
13 [fe8a9389] (00/54) No match (V2 was not tested)
14 [8f88b019] (00/54) No match (V2 was not tested)
15 [4eb752f2] (00/54) No match (V2 was not tested)
16 [a5767cac] (00/54) No match (V2 was not tested)
17 [a53dd1cf] (00/54) No match (V2 was not tested)
18 [a682d0ac] (00/54) No match (V2 was not tested)
19 [614eaa37] (00/54) No match (V2 was not tested)
20 [70334098] (00/54) No match (V2 was not tested)
21 [09b261f0] (00/54) No match (V2 was not tested)
22 [defbc8fd] (00/54) No match (V2 was not tested)
23 [09886240] (00/53) No match (V2 was not tested)
24 [fe36b567] (00/53) No match (V2 was not tested)
25 [d224f4e5] (00/53) No match (V2 was not tested)
26 [71de1614] (00/51) No match (V2 was not tested)

Track Peak [ CRC32 ] [W/O NULL]
-- 97,2 [E228A27B] [4DBA44E6]
01 97,0 [51815D89] [7875C912]
02 90,7 [CCC5ABE1] [2663E8F0]
03 91,3 [AE0A2170] [250CD77A]
04 82,2 [C7FFB5C1] [72EE72BC]
05 97,2 [12550DD0] [5C1C544F]
06 97,2 [FABA3798] [5B5450A7]
07 97,2 [5ACB2B7F] [EE80AD4D]
08 92,1 53B51A9 [4AEE4D9F]
09 97,2 [5EA14F53] [71AF5E7E]
10 86,6 [585BB211] [75973579]
11 91,8 [433A6A37] 96DC15D
12 91,8 [AF0C524A] 29BF837
13 86,1 [CCEDC9A6] [CBE257CE]
14 94,7 [34179F20] 50C3F5E
15 84,4 [793DC1F5] [67C2F565]
16 97,2 [5340E4B8] 889F61D
17 85,3 [C30813D5] [762BF760]
18 93,7 [9BB1507B] [C3834D83]
19 84,8 [94F047D0] [4E344A3C]
20 72,9 [CE9A28AE] [3F124DB5]
21 74,4 [A83625F4] [0F45EB3D]
22 74,4 [FA5D29AC] [0DBF8696]
23 93,8 [4CE44F6E] [E454206E]
24 92,7 [2F6B8E75] [833E87CB]
25 97,2 [19A2015B] [F0A02296]
26 81,3 [7FC41CB1] [89EBDDD0]

-
[CUETools log; Date: 2015.09.21. 14:28:34; Version: 2.1.5]
[CTDB TOCID: Xs8GUbOZ.4jt2kBOSCxxc1iACKM-] found.
Track | CTDB Status
1 | (12/13) Accurately ripped
2 | (13/13) Accurately ripped
3 | (12/13) Accurately ripped
4 | (13/13) Accurately ripped
5 | (13/13) Accurately ripped
6 | (13/13) Accurately ripped
7 | (13/13) Accurately ripped
8 | (13/13) Accurately ripped
9 | (13/13) Accurately ripped
10 | (13/13) Accurately ripped
11 | (13/13) Accurately ripped
12 | (13/13) Accurately ripped
13 | (13/13) Accurately ripped
14 | (13/13) Accurately ripped
15 | (13/13) Accurately ripped
16 | (13/13) Accurately ripped
17 | (13/13) Accurately ripped
18 | (13/13) Accurately ripped
19 | (13/13) Accurately ripped
20 | (12/13) Accurately ripped
21 | (13/13) Accurately ripped
22 | (13/13) Accurately ripped
23 | (13/13) Accurately ripped
24 | (12/13) Accurately ripped
[AccurateRip ID: 0030f39d-036b11eb-2b0f2118] found.
Track [ CRC | V2 ] Status
01 [3a50fe7e|f148af23] (22+24/48) Accurately ripped
02 [022fc99c|d09862b0] (22+24/48) Accurately ripped
03 [c32f52c1|32459c20] (22+24/48) Accurately ripped
04 [563bd2a5|e0cf96e3] (22+24/48) Accurately ripped
05 [81576d77|3f09f7a6] (22+24/48) Accurately ripped
06 [a49a071e|89ccfe72] (22+24/48) Accurately ripped
07 [8c8c679a|bfbeec83] (22+24/48) Accurately ripped
08 [aec1c023|345c5380] (22+24/48) Accurately ripped
09 [1abe7714|7f2d3039] (22+24/48) Accurately ripped
10 3786693|e1ddcb39 (22+24/48) Accurately ripped
11 [e9cfb46b|c6ac5fcf] (21+24/47) Accurately ripped
12 [caa31325|21dd333d] (22+24/48) Accurately ripped
13 [cdea851e|025ae6c6] (22+24/48) Accurately ripped
14 [9c8aa8fc|3eabcb8f] (22+23/47) Accurately ripped
15 [36fd5aec|0bc6fbf2] (22+23/47) Accurately ripped
16 [3fdeb731|9e0bddec] (22+24/48) Accurately ripped
17 [0be4e4f2|6ea8072a] (22+24/48) Accurately ripped
18 [108fcb9f|2baec0b8] (22+24/48) Accurately ripped
19 86556d5|cc08eee4 (22+24/48) Accurately ripped
20 [14eb974a|31630597] (22+24/48) Accurately ripped
21 b1ab464|4cc8ba2f (22+24/48) Accurately ripped
22 [074b2cf5|f6401e77] (22+24/48) Accurately ripped
23 [5f5b0937|9fc32104] (22+24/48) Accurately ripped
24 [f1b1ef16|dc71a6fa] (18+23/46) Accurately ripped
Offsetted by -658:
01 [9db8520c] (00/48) No match (V2 was not tested)
02 [822626ec] (00/48) No match (V2 was not tested)
03 [59623615] (00/48) No match (V2 was not tested)
04 [54ae6865] (00/48) No match (V2 was not tested)
05 [25a449ab] (00/48) No match (V2 was not tested)
06 [f2603494] (00/48) No match (V2 was not tested)
07 [18404430] (00/48) No match (V2 was not tested)
08 [dacd3a17] (00/48) No match (V2 was not tested)
09 [813fc196] (00/48) No match (V2 was not tested)
10 [6b395b1b] (00/48) No match (V2 was not tested)
11 [66adc755] (00/47) No match (V2 was not tested)
12 [2b839973] (00/48) No match (V2 was not tested)
13 [efe7d370] (00/48) No match (V2 was not tested)
14 [18819048] (00/47) No match (V2 was not tested)
15 [fdf63eb2] (00/47) No match (V2 was not tested)
16 ad6d619 (00/48) No match (V2 was not tested)
17 [1861b0ee] (00/48) No match (V2 was not tested)
18 [9c6e10ef] (00/48) No match (V2 was not tested)
19 [a986a8e3] (00/48) No match (V2 was not tested)
20 [ac5808c6] (00/48) No match (V2 was not tested)
21 [0895f56c] (00/48) No match (V2 was not tested)
22 [6f9c5f6f] (00/48) No match (V2 was not tested)
23 [aa5bf19f] (00/48) No match (V2 was not tested)
24 [0b25fbde] (00/46) No match (V2 was not tested)

Track Peak [ CRC32 ] [W/O NULL]
-- 99,1 [0493BAF1] [95BC2062]
01 91,3 [3FDDF62D] [509B08AF]
02 73,3 [C45AEC59] [7560CA5A]
03 97,2 [4306E0C4] [852F8DC4]
04 94,6 [A64C9E7C] [6309FB7D]
05 97,2 [559C3C23] [D3A6D713]
06 99,1 [72961B9D] [4D2B8500]
07 79,5 24C8C39 [FEFA5F48]
08 97,2 [C1F338C5] [5B8233DC]
09 81,8 [2D89E15A] [41EE9F07]
10 96,9 [9BB5B614] [FE72A16F]
11 87,9 [3F7E82BA] [F3ACBBE9]
12 97,2 [7C2558EF] [EB5007D5]
13 97,2 [883473B8] [E7E43D7B]
14 71,0 [ABAA555C] [6175BB98]
15 75,6 [CC65677A] B7AEA62
16 76,2 [D8F499C2] [5ABD2290]
17 69,9 [2C541B86] [60EAE56E]
18 97,2 [5820537A] [7FCE5DA2]
19 97,2 [D168FD83] [1F503C12]
20 86,3 [33BE6319] [0AEC5541]
21 97,2 [1EE57C2A] [5AA1B51B]
22 97,2 [DBC5E7AE] 7DDD33E
23 97,2 [58F9E1C1] [5470D8F6]
24 86,6 [F7626CEE] [2CF69403]

Thx to wwphil
password: asd
DOWNLOAD LINKS:
Buy Premium To Support Me & Get Resumable Support & Max Speed


Links are Interchangeable - No Password - Single Extraction

Direct Download

Tags: Everly, Brothers, Definitive, Everly, Brothers

Everly Brothers - The Definitive Everly Brothers (2002) Download via Hotfile Rapidshare Fileserve Megaupload & FileSonic, Everly Brothers - The Definitive Everly Brothers (2002) free torrent downloads included crack, serial, keygen.


Attention!Information

Members of Guest cannot leave comments.