Bob Seger & The Silver Bullet Band - Against The Wind (1980)

Download Now

Bob Seger & The Silver Bullet Band - Against The Wind (1980)

Bob Seger & The Silver Bullet Band - Against The Wind (1980)
XLD | Flac(Image) + Cue + Log & MP3 CBR 320Kbps
2003 | Capitol, 72435-84316-2-9 | ~ 286 or 102 Mb | Scans Included
Classic Rock

"Though there are still some traces of the confessionals that underpinned Beautiful Loser through Stranger in Town, Against the Wind finds Bob Seger turning toward craft. Perhaps he had to, since Against the Wind arrived after three blockbuster albums and never-ending tours..."


Tracklist:

01. The Horizontal Bop (4:02)
02. You'll Accomp'ny Me (3:59)
03. Her Strut (3:53)
04. No Man's Land (3:43)
05. Long Twin Silver Line (4:15)
06. Against The Wind (5:33)
07. Good For Me (4:03)
08. Betty Lou's Gettin' Out Tonight (2:52)
09. Fire Lake (3:32)
10. Shinin' Brightly (4:24)

X Lossless Decoder version 20130127 (142.3)

XLD extraction logfile from 2013-02-10 12:03:00 -0500

Bob Seger & The Silver Bullet Band / Against The Wind

Used drive : MATSHITA DVD-R UJ-898 (revision HE13)
Media type : Pressed CD

Ripper mode : XLD Secure Ripper
Disable audio cache : OK for the drive with a cache less than 1375KiB
Make use of C2 pointers : NO
Read offset correction : 102
Max retry count : 20
Gap status : Analyzed, Appended (except HTOA)

TOC of the extracted CD
Track | Start | Length | Start sector | End sector
--1 | 00:00:00 | 04:03:02 | 0 | 18226 2 | 04:03:02 | 04:00:10 | 18227 | 36236 3 | 08:03:12 | 03:51:54 | 36237 | 53615 4 | 11:54:66 | 03:43:62 | 53616 | 70402 5 | 15:38:53 | 04:18:34 | 70403 | 89786 6 | 19:57:12 | 05:34:12 | 89787 | 114848 7 | 25:31:24 | 04:03:64 | 114849 | 133137 8 | 29:35:13 | 02:52:06 | 133138 | 146043 9 | 32:27:19 | 03:30:46 | 146044 | 161839
10 | 35:57:65 | 04:28:05 | 161840 | 181944

List of alternate offset correction values# | Absolute | Relative | Confidence
1 | 97 | -5 | 14

AccurateRip Summary (DiscID: 000f5a06-007ae365-9709790a)
Track 01 : OK (v1, confidence 5/19)
Track 02 : OK (v1, confidence 5/19)
Track 03 : OK (v1, confidence 5/19)
Track 04 : OK (v1, confidence 5/18)
Track 05 : OK (v1, confidence 5/19)
Track 06 : OK (v1, confidence 6/20)
Track 07 : OK (v1, confidence 5/19)
Track 08 : OK (v1, confidence 5/19)
Track 09 : OK (v1, confidence 5/19)
Track 10 : OK (v1, confidence 5/19)->All tracks accurately ripped.

All Tracks
Album gain : -9.18 dB
Peak : 0.988556
StatisticsRead error : 0Jitter error (maybe fixed) : 0Retry sector count : 0Damaged sector count : 0

Track 01
Filename : /Users/erwinfigueroa/Transmission/Uploaded/Bob Seger & The Silver Bullet Band - Against The Wind (1980) [V0]/01 The Horizontal Bop.mp3 /Users/erwinfigueroa/Transmission/Uploaded/Bob Seger & The Silver Bullet Band - Against The Wind (1980) [FLAC]/01 The Horizontal Bop.flac
Pre-gap length : 00:02:00 Track gain : -9.32 dB
Peak : 0.988525
CRC32 hash (test run) : 14427A6D
CRC32 hash : 14427A6D
CRC32 hash (skip zero) : 60A20861
AccurateRip v1 signature : 01DA9E77
AccurateRip v2 signature : 791AF221->Accurately ripped (v1, confidence 5/19)
StatisticsRead error : 0Jitter error (maybe fixed) : 0Retry sector count : 0Damaged sector count : 0

Track 02
Filename : /Users/erwinfigueroa/Transmission/Uploaded/Bob Seger & The Silver Bullet Band - Against The Wind (1980) [V0]/02 You'll Accomp'ny Me.mp3 /Users/erwinfigueroa/Transmission/Uploaded/Bob Seger & The Silver Bullet Band - Against The Wind (1980) [FLAC]/02 You'll Accomp'ny Me.flac Track gain : -8.63 dB
Peak : 0.988525
CRC32 hash (test run) : C5033106
CRC32 hash : C5033106
CRC32 hash (skip zero) : 8B4BFFC8
AccurateRip v1 signature : 5E0C2E74
AccurateRip v2 signature : 7E6FC249->Accurately ripped (v1, confidence 5/19)
StatisticsRead error : 0Jitter error (maybe fixed) : 0Retry sector count : 0Damaged sector count : 0

Track 03
Filename : /Users/erwinfigueroa/Transmission/Uploaded/Bob Seger & The Silver Bullet Band - Against The Wind (1980) [V0]/03 Her Strut.mp3 /Users/erwinfigueroa/Transmission/Uploaded/Bob Seger & The Silver Bullet Band - Against The Wind (1980) [FLAC]/03 Her Strut.flac Track gain : -8.93 dB
Peak : 0.988525
CRC32 hash (test run) : 74910DC1
CRC32 hash : 74910DC1
CRC32 hash (skip zero) : FA0AD094
AccurateRip v1 signature : 92490166
AccurateRip v2 signature : D6D901D6->Accurately ripped (v1, confidence 5/19)
StatisticsRead error : 0Jitter error (maybe fixed) : 0Retry sector count : 0Damaged sector count : 0

Track 04
Filename : /Users/erwinfigueroa/Transmission/Uploaded/Bob Seger & The Silver Bullet Band - Against The Wind (1980) [V0]/04 No Man's Land.mp3 /Users/erwinfigueroa/Transmission/Uploaded/Bob Seger & The Silver Bullet Band - Against The Wind (1980) [FLAC]/04 No Man's Land.flac Track gain : -9.00 dB
Peak : 0.988525
CRC32 hash (test run) : 2D7CB85A
CRC32 hash : 2D7CB85A
CRC32 hash (skip zero) : 4E687B92
AccurateRip v1 signature : 8854EDEC
AccurateRip v2 signature : 1593C480->Accurately ripped (v1, confidence 5/18)
StatisticsRead error : 0Jitter error (maybe fixed) : 0Retry sector count : 0Damaged sector count : 0

Track 05
Filename : /Users/erwinfigueroa/Transmission/Uploaded/Bob Seger & The Silver Bullet Band - Against The Wind (1980) [V0]/05 Long Twin Silver Line.mp3 /Users/erwinfigueroa/Transmission/Uploaded/Bob Seger & The Silver Bullet Band - Against The Wind (1980) [FLAC]/05 Long Twin Silver Line.flac Track gain : -10.19 dB
Peak : 0.988525
CRC32 hash (test run) : 9F9F41DB
CRC32 hash : 9F9F41DB
CRC32 hash (skip zero) : A4B9342B
AccurateRip v1 signature : 8A8A6217
AccurateRip v2 signature : BAA31568->Accurately ripped (v1, confidence 5/19)
StatisticsRead error : 0Jitter error (maybe fixed) : 0Retry sector count : 0Damaged sector count : 0

Track 06
Filename : /Users/erwinfigueroa/Transmission/Uploaded/Bob Seger & The Silver Bullet Band - Against The Wind (1980) [V0]/06 Against The Wind.mp3 /Users/erwinfigueroa/Transmission/Uploaded/Bob Seger & The Silver Bullet Band - Against The Wind (1980) [FLAC]/06 Against The Wind.flac Track gain : -8.28 dB
Peak : 0.988556
CRC32 hash (test run) : DD7AACB5
CRC32 hash : DD7AACB5
CRC32 hash (skip zero) : 4A5C10D0
AccurateRip v1 signature : 8F506F0D
AccurateRip v2 signature : 9CAFDA61->Accurately ripped (v1, confidence 6/20)
StatisticsRead error : 0Jitter error (maybe fixed) : 0Retry sector count : 0Damaged sector count : 0

Track 07
Filename : /Users/erwinfigueroa/Transmission/Uploaded/Bob Seger & The Silver Bullet Band - Against The Wind (1980) [V0]/07 Good For Me.mp3 /Users/erwinfigueroa/Transmission/Uploaded/Bob Seger & The Silver Bullet Band - Against The Wind (1980) [FLAC]/07 Good For Me.flac Track gain : -7.55 dB
Peak : 0.988525
CRC32 hash (test run) : 663F0AE8
CRC32 hash : 663F0AE8
CRC32 hash (skip zero) : 75437CD1
AccurateRip v1 signature : 97BD84AD
AccurateRip v2 signature : BE450EEC->Accurately ripped (v1, confidence 5/19)
StatisticsRead error : 0Jitter error (maybe fixed) : 0Retry sector count : 0Damaged sector count : 0

Track 08
Filename : /Users/erwinfigueroa/Transmission/Uploaded/Bob Seger & The Silver Bullet Band - Against The Wind (1980) [V0]/08 Betty Lou's Gettin' Out Tonight.mp3 /Users/erwinfigueroa/Transmission/Uploaded/Bob Seger & The Silver Bullet Band - Against The Wind (1980) [FLAC]/08 Betty Lou's Gettin' Out Tonight.flac Track gain : -9.77 dB
Peak : 0.988525
CRC32 hash (test run) : 41460A8A
CRC32 hash : 41460A8A
CRC32 hash (skip zero) : 8D2280F7
AccurateRip v1 signature : 2C47E702
AccurateRip v2 signature : E3C1FCED->Accurately ripped (v1, confidence 5/19)
StatisticsRead error : 0Jitter error (maybe fixed) : 0Retry sector count : 0Damaged sector count : 0

Track 09
Filename : /Users/erwinfigueroa/Transmission/Uploaded/Bob Seger & The Silver Bullet Band - Against The Wind (1980) [V0]/09 Fire Lake.mp3 /Users/erwinfigueroa/Transmission/Uploaded/Bob Seger & The Silver Bullet Band - Against The Wind (1980) [FLAC]/09 Fire Lake.flac Track gain : -8.44 dB
Peak : 0.969818
CRC32 hash (test run) : 63381528
CRC32 hash : 63381528
CRC32 hash (skip zero) : 48319D9C
AccurateRip v1 signature : B70876EA
AccurateRip v2 signature : 6BA38922->Accurately ripped (v1, confidence 5/19)
StatisticsRead error : 0Jitter error (maybe fixed) : 0Retry sector count : 0Damaged sector count : 0

Track 10
Filename : /Users/erwinfigueroa/Transmission/Uploaded/Bob Seger & The Silver Bullet Band - Against The Wind (1980) [V0]/10 Shinin' Brightly.mp3 /Users/erwinfigueroa/Transmission/Uploaded/Bob Seger & The Silver Bullet Band - Against The Wind (1980) [FLAC]/10 Shinin' Brightly.flac Track gain : -9.10 dB
Peak : 0.988525
CRC32 hash (test run) : 0A561C33
CRC32 hash : 0A561C33
CRC32 hash (skip zero) : B272253E
AccurateRip v1 signature : 8213F70D
AccurateRip v2 signature : 247EFE3D->Accurately ripped (v1, confidence 5/19)
StatisticsRead error : 0Jitter error (maybe fixed) : 0Retry sector count : 0Damaged sector count : 0

No errors occurred

End of status report

foobar2000 1.2.9 / Dynamic Range Meter 1.1.1
log date: 2015-09-22 03:58:50

Analyzed: Bob Seger & The Silver Bullet Band / Against The Wind

DR Peak RMS Duration Track

DR8 -0.10 dB -8.88 dB 4:03 01-The Horizontal Bop
DR8 -0.10 dB -10.47 dB 4:00 02-You'll Accomp'ny Me
DR8 -0.10 dB -9.87 dB 3:52 03-Her Strut
DR8 -0.10 dB -9.67 dB 3:44 04-No Man's Land
DR7 -0.10 dB -7.98 dB 4:18 05-Long Twin Silver Line
DR8 -0.10 dB -10.03 dB 5:34 06-Against The Wind
DR9 -0.10 dB -12.97 dB 4:04 07-Good For Me
DR7 -0.10 dB -8.49 dB 2:52 08-Betty Lou's Gettin' Out Tonight
DR8 -0.27 dB -10.80 dB 3:31 09-Fire Lake
DR7 -0.10 dB -9.99 dB 4:28 10-Shinin' Brightly

Number of tracks: 10
Official DR value: DR8

Samplerate: 44100 Hz
Channels: 2
Bits per sample: 16
Bitrate: 948 kbps
Codec: FLAC

[CUETools log; Date: 22.09.2015 3:58:42; Version: 2.1.4]
[CTDB TOCID: K6icNWdm5BO84Q.jA3w6IJF4ets-] found.
Track | CTDB Status
1 | (27/27) Accurately ripped
2 | (27/27) Accurately ripped
3 | (27/27) Accurately ripped
4 | (27/27) Accurately ripped
5 | (27/27) Accurately ripped
6 | (27/27) Accurately ripped
7 | (27/27) Accurately ripped
8 | (27/27) Accurately ripped
9 | (27/27) Accurately ripped
10 | (27/27) Accurately ripped
[AccurateRip ID: 000f5a06-007ae365-9709790a] found.
Track [ CRC | V2 ] Status
01 [01da9e77|791af221] (06+37/64) Accurately ripped
02 [5e0c2e74|7e6fc249] (06+37/63) Accurately ripped
03 [92490166|d6d901d6] (06+37/63) Accurately ripped
04 [8854edec|1593c480] (06+37/62) Accurately ripped
05 [8a8a6217|baa31568] (06+37/63) Accurately ripped
06 [8f506f0d|9cafda61] (07+36/63) Accurately ripped
07 [97bd84ad|be450eec] (06+37/63) Accurately ripped
08 [2c47e702|e3c1fced] (06+37/63) Accurately ripped
09 70876ea|6ba38922 (06+37/63) Accurately ripped
10 [8213f70d|247efe3d] (06+37/63) Accurately ripped
Offsetted by -5:
01 [4b06dda0] (14/64) Accurately ripped
02 [8b61a29e] (14/63) Accurately ripped
03 [3110073e] (14/63) Accurately ripped
04 [c4e4d71b] (13/62) Accurately ripped
05 [ce14fa48] (14/63) Accurately ripped
06 [fc8a994c] (14/63) Accurately ripped
07 [323964f7] (14/63) Accurately ripped
08 [46dd73d6] (14/63) Accurately ripped
09 [6f677a3a] (14/63) Accurately ripped
10 [80ff89b0] (14/63) Accurately ripped

Track Peak [ CRC32 ] [W/O NULL]
-- 98,8 [7EE16C18] [1E6F8430]
01 98,8 [14427A6D] [60A20861]
02 98,8 [C5033106] [8B4BFFC8]
03 98,8 [74910DC1] [FA0AD094]
04 98,8 [2D7CB85A] [4E687B92]
05 98,8 [9F9F41DB] [A4B9342B]
06 98,8 [DD7AACB5] [4A5C10D0]
07 98,8 [663F0AE8] [75437CD1]
08 98,8 [41460A8A] [8D2280F7]
09 96,9 [63381528] [48319D9C]
10 98,8 [0A561C33] 272253E

Bob Seger & The Silver Bullet Band - Against The Wind (1980)

DOWNLOAD LINKS
(Premium Recommended)


Links are Interchangeable - No Password - Single Extraction

Direct Download

Tags: Silver, Bullet

Bob Seger & The Silver Bullet Band - Against The Wind (1980) Download via Hotfile Rapidshare Fileserve Megaupload & FileSonic, Bob Seger & The Silver Bullet Band - Against The Wind (1980) free torrent downloads included crack, serial, keygen.


Attention!Information

Members of Guest cannot leave comments.