Leona Lewis - I Am (2015) [Japan]

Download Now

Leona Lewis - I Am (2015) [Japan]

Leona Lewis - I Am (2015)
EAC Rip | FLAC (Img) + Cue + Log ~ 380 Mb | MP3 CBR320 ~ 135 Mb
Scans (JPG, 600 dpi) ~ 93 Mb | RAR 5% Recovery
Pop | Island Records #UICI-1140

"Having taken the world by storm with a Number 1 album in 35 countries including being the FIRST UK SOLO ARTIST TO DEBUT ALBUM STRAIGHT TO #1 ON BILLBOARD 200. Leona Lewis is back with a brand new album on a brand new home. "I Am" is the sound of an artist coming of age; an upbeat and defiant assertion of Lewis' individuality, which demonstrates that striking, almost ethereal vocal range and a voice flooded with emotion. On title track "I Am" Leona sings powerfully about being "stronger without you" and on ballad "You Knew Me When" she insists, "I'm not the me I used to be". Whilst a lot is already being made of Leona's lyrical references and people are beginning to draw their own conclusions (not always right), these lyrics deal with Leona's many different experiences since starting her work on this project and over the last few years both personally and professionally..."

Wiki | Discogs | All Music
***************

Leona Lewis - I Am (2015) [Japan]

Track List:

01. Thunder [03:44]
02. Fire Under My Feet [03:36]
03. You Knew Me When [03:41]
04. I Am [03:43]
05. Ladders [03:27]
06. The Essence Of Me [03:41]
07. I Got You [03:01]
08. Power [03:20]
09. Another Love Song [03:27]
10. Thank You [04:03]
11. Thick Skin [02:59]
12. The Best And The Worst [03:25]
13. I Am (Acoustic) [03:27]
14. Thunder (Acoustic) [03:18]
15. Fire Under My Feet (United Studio Session) [03:46]
16. Fire Under My Feet (Endor Remix) [03:34]

Exact Audio Copy V1.0 beta 6 from 9. April 2015

Отчёт EAC об извлечении, выполненном 19. сентября 2015, 21:39

Leona Lewis / I Am

Дисковод: SlimtypeDVD A DS8A9SH Adapter: 1 ID: 0

Режим чтения : Достоверность
Использование точного потока : Да
Отключение кэша аудио : Да
Использование указателей C2 : Нет

Коррекция смещения при чтении : 6
Способность читать области Lead-in и Lead-out : Нет
Заполнение пропущенных сэмплов тишиной : Да
Удаление блоков с тишиной в начале и конце : Нет
При вычислениях CRC использовались нулевые сэмплы : Да
Интерфейс : Встроенный Win32-интерфейс для Win NT/2000

Выходной формат : Пользовательский кодировщик
Выбранный битрейт : 128 kBit/s
Качество : Высокий
Добавление ID3-тега : Нет
Утилита сжатия : D:\Programm Files\FLAC\FLAC.EXE
Дополнительные параметры : -V -8 -T "Date=%year%" -T "Genre=%genre%" %source%

TOC извлечённого CD Трек | Старт | Длительность | Начальный сектор | Конечный сектор

1 | 0:00.00 | 3:43.20 | 0 | 16744
2 | 3:43.20 | 3:35.40 | 16745 | 32909
3 | 7:18.60 | 3:40.42 | 32910 | 49451
4 | 10:59.27 | 3:42.42 | 49452 | 66143
5 | 14:41.69 | 3:26.25 | 66144 | 81618
6 | 18:08.19 | 3:41.00 | 81619 | 98193
7 | 21:49.19 | 3:01.00 | 98194 | 111768
8 | 24:50.19 | 3:19.38 | 111769 | 126731
9 | 28:09.57 | 3:26.52 | 126732 | 142233
10 | 31:36.34 | 4:02.06 | 142234 | 160389
11 | 35:38.40 | 2:58.15 | 160390 | 173754
12 | 38:36.55 | 3:24.34 | 173755 | 189088
13 | 42:01.14 | 3:26.02 | 189089 | 204540
14 | 45:27.16 | 3:17.62 | 204541 | 219377
15 | 48:45.03 | 3:45.71 | 219378 | 236323
16 | 52:30.74 | 3:33.19 | 236324 | 252317

Характеристики диапазона извлечения и сообщения об ошибках

Выбранный диапазон Имя файла D:\My Rips\Audio\Leona Lewis - 2015 - I Am (Island Records, UICI-1140, Japan)\Leona Lewis - I Am.wav Пиковый уровень 100.0 %
Скорость извлечения 4.4 X
Качество диапазона 100.0 %
CRC теста E13FFF27
CRC копии E13FFF27
Копирование... OK

Ошибок не произошло


AccurateRip: сводка

Трек 1 отсутствует в базе данных
Трек 2 отсутствует в базе данных
Трек 3 отсутствует в базе данных
Трек 4 отсутствует в базе данных
Трек 5 отсутствует в базе данных
Трек 6 отсутствует в базе данных
Трек 7 отсутствует в базе данных
Трек 8 отсутствует в базе данных
Трек 9 отсутствует в базе данных
Трек 10 отсутствует в базе данных
Трек 11 отсутствует в базе данных
Трек 12 отсутствует в базе данных
Трек 13 отсутствует в базе данных
Трек 14 отсутствует в базе данных
Трек 15 отсутствует в базе данных
Трек 16 отсутствует в базе данных

Ни одного трека нет в базе AccurateRip

Конец отчёта

==== Контрольная сумма отчёта 5038E23FC3617C0235D000E9943D4090C59399EF3DEBD5EFE5FC89CD69EC1486 ====

foobar2000 1.2.6 / Dynamic Range Meter 1.1.1
log date: 2015-09-22 18:44:24

Analyzed: Leona Lewis / I Am

DR Peak RMS Duration Track

DR4 -0.01 dB -5.68 dB 3:43 01-Thunder
DR4 -0.01 dB -5.17 dB 3:36 02-Fire Under My Feet
DR7 -0.01 dB -9.12 dB 3:41 03-You Knew Me When
DR5 -0.01 dB -6.87 dB 3:43 04-I Am
DR6 -0.01 dB -7.22 dB 3:26 05-Ladders
DR5 -0.01 dB -6.67 dB 3:41 06-The Essence Of Me
DR4 -0.01 dB -5.84 dB 3:01 07-I Got You
DR6 -0.01 dB -8.67 dB 3:20 08-Power
DR6 -0.01 dB -9.17 dB 3:27 09-Another Love Song
DR7 -0.01 dB -9.79 dB 4:02 10-Thank You
DR6 -0.01 dB -7.79 dB 2:58 11-Thick Skin
DR8 -0.01 dB -10.99 dB 3:24 12-The Best And The Worst
DR8 -0.01 dB -9.73 dB 3:26 13-I Am (Acoustic)
DR7 -0.83 dB -9.37 dB 3:18 14-Thunder (Acoustic)
DR4 -0.01 dB -5.71 dB 3:46 15-Fire Under My Feet (United Studio Session)
DR5 0.00 dB -6.95 dB 3:33 16-Fire Under My Feet (Endor Remix)

Number of tracks: 16
Official DR value: DR6

Samplerate: 44100 Hz
Channels: 2
Bits per sample: 16
Bitrate: 902 kbps
Codec: FLAC

[CUETools log; Date: 22.09.2015 18:44:41; Version: 2.1.5]
[CTDB TOCID: eoy_f9uWO0TvHvf63fJyEbhmjIQ-] found.
Track | CTDB Status
1 | (1/1) Accurately ripped
2 | (1/1) Accurately ripped
3 | (1/1) Accurately ripped
4 | (1/1) Accurately ripped
5 | (1/1) Accurately ripped
6 | (1/1) Accurately ripped
7 | (1/1) Accurately ripped
8 | (1/1) Accurately ripped
9 | (1/1) Accurately ripped
10 | (1/1) Accurately ripped
11 | (1/1) Accurately ripped
12 | (1/1) Accurately ripped
13 | (1/1) Accurately ripped
14 | (1/1) Accurately ripped
15 | (1/1) Accurately ripped
16 | (1/1) Accurately ripped
[AccurateRip ID: 0020fbba-018a17aa-d20d2410] disk not present in database.

Track Peak [ CRC32 ] [W/O NULL] [ LOG ]
-- 99,9 [E13FFF27] [999BFA7B] CRC32
01 99,8 [2934E20F] [A607B430]
02 99,8 [2F8FC55D] [91A522BE]
03 99,8 [AF32B0E3] [8055EB31]
04 99,8 [284B0FBA] [584CBAE4]
05 99,8 [639E97CB] [2A29FCB3]
06 99,8 [30F54081] [C50F83F8]
07 99,8 [0B82E609] [7264ABBE]
08 99,8 [C6AAB62E] [AC0A6E1E]
09 99,8 [23174E5F] [CC7F6413]
10 99,8 [63855B63] [82BA12A7]
11 99,8 [CDE16EC4] [9627D85E]
12 99,8 [51A36F60] [54F14091]
13 99,8 [6C57683E] [7C2B3E6C]
14 90,9 [89A2C190] [93DD6127]
15 99,8 5E913D3 [14D177E1]
16 99,9 [DFEF3958] [2EB3B988]

Leona Lewis - I Am (2015) [Japan]


DOWNLOAD:
Buy Premium To Support Me & Get Resumable Support & Max Speed


Links are Interchangeable - No Password

Direct Download

Leona Lewis - I Am (2015) [Japan] Download via Hotfile Rapidshare Fileserve Megaupload & FileSonic, Leona Lewis - I Am (2015) [Japan] free torrent downloads included crack, serial, keygen.


Attention!Information

Members of Guest cannot leave comments.