Various Artists: Confessions Of A Teenage Drama Queen - Original Soundtrack (2004) RESTORED

Download Now


Various Artists: Confessions Of A Teenage Drama Queen - Original Soundtrack (2004) RESTORED
VA: Confessions Of A Teenage Drama Queen - OST (2004)
FLAC+CUE+LOG or MP3 CBR 320 | Complete Scanwork | 414 or 130 MB
Music From The Motion Picture / Rock / Pop | Hollywood Records # HR 62442-2

Confessions of a Teenage Drama Queen is the soundtrack album for Confessions of a Teenage Drama Queen, released on February 17, 2004. The film's lead actress, Lindsay Lohan, recorded four songs written for the film, including "Drama Queen (That Girl)", that was released as a promo single in January of that year. The album sold over 660,000 copies, according to Soundscan.
Tracklist:

01. Lindsay Lohan -- Drama Queen (That Girl)
02. Cherie -- Ready
03. Atomic Kitten feat. Kool & The Gang -- Ladies Night
04. Simple Plan -- Perfect (Acoustic Version)
05. Lillix -- Tomorrow
06. Lindsay Lohan -- What Are You Waiting For
07. Superchic[K] -- Na Na
08. Nicky Cleary -- 1, 2, 3
09. Lindsay Lohan -- Don't Move On/Living For The City/Changes (Medley)
10. Fan_3 -- Boom
11. Lindsay Lohan -- A Day In The Life
12. Alexis -- The Real Me
13. Wakefield -- Un--Sweet Sixteen
14. Diffuser -- Only In The Movies

Exact Audio Copy V1.0 beta 1 from 15. November 2010

EAC extraction logfile from 14. January 2011, 16:33

Various / Confessions Of A Teenage Drama Queen (OST)

Used drive : PIONEER DVD-RW DVR-116D Adapter: 1 ID: 0

Read mode : Secure
Utilize accurate stream : Yes
Defeat audio cache : Yes
Make use of C2 pointers : No

Read offset correction

: 96
Overread into Lead-In and Lead-Out : No
Fill up missing offset samples with silence : Yes
Delete leading and trailing silent blocks : No
Null samples used in CRC calculations : Yes
Used interface
: Installed external ASPI interface

Used output format : Internal WAV Routines
Sample format : 44.100 Hz; 16 Bit; Stereo

TOC of the extracted CD Track | Start | Length | Start sector | End sector
--1 | 0:00.00 | 3:29.07 | 0 | 15681 2 | 3:29.07 | 3:22.61 | 15682 | 30892 3 | 6:51.68 | 3:06.58 | 30893 | 44900 4 | 9:58.51 | 4:07.37 | 44901 | 63462 5 | 14:06.13 | 3:39.60 | 63463 | 79947 6 | 17:45.73 | 3:19.14 | 79948 | 94886 7 | 21:05.12 | 3:45.02 | 94887 | 111763 8 | 24:50.14 | 3:28.37 | 111764 | 127400 9 | 28:18.51 | 2:22.44 | 127401 | 138094
10 | 30:41.20 | 3:20.61 | 138095 | 153155
11 | 34:02.06 | 3:19.14 | 153156 | 168094
12 | 37:21.20 | 4:22.62 | 168095 | 187806
13 | 41:44.07 | 2:55.69 | 187807 | 201000
14 | 44:40.01 | 2:55.65 | 201001 | 214190

Range status and errors

Selected range Filename C:\AvaxHome.ru\Confessions Of A Teenage Drama Queen OST (2004)\VA - C.O.A.T. Drama Queen (Original Soundtrack).wav Peak level 95.7 %
Extraction speed 0.4 X
Range quality 99.9 %
Test CRC EA7F3F01
Copy CRC EA7F3F01
Copy OK

No errors occurred


AccurateRip summary

Track 1 accurately ripped (confidence 5) [3D6002D1]
Track 2 accurately ripped (confidence 5) [C277A9D4]
Track 3 accurately ripped (confidence 5) [A496CF9B]
Track 4 accurately ripped (confidence 5) [986D34AB]
Track 5 accurately ripped (confidence 5) [6D06FBF8]
Track 6 accurately ripped (confidence 5) [F161000B]
Track 7 accurately ripped (confidence 5) [A32C55E5]
Track 8 accurately ripped (confidence 5) [9431B92F]
Track 9 accurately ripped (confidence 5) [C7C320B0]
Track 10 accurately ripped (confidence 5) 8BFDD39
Track 11 accurately ripped (confidence 5) [43D8F294]
Track 12 accurately ripped (confidence 5) [F5473D90]
Track 13 accurately ripped (confidence 5) [9620D39B]
Track 14 accurately ripped (confidence 5) [EEA0CD05]

All tracks accurately ripped

End of status report

==== Log checksum BDF6EA491131162DB296A678C1724C3D8F8C16325001118146C213659D9F9BE1 ====

Soundtrack Album Produced by Mitchell Leib and Dawn Solér

Release Date: February 17, 2004
Label: Hollywood Records
Catalog No.: HR 62442-2
DOWNLOAD
(Premium Recommended)


All above links are interchangable. No password

Direct Download

Tags: Various, Artists, Confessions, Teenage, Original, Soundtrack, RESTORED

Various Artists: Confessions Of A Teenage Drama Queen - Original Soundtrack (2004) RESTORED Download via Hotfile Rapidshare Fileserve Megaupload & FileSonic, Various Artists: Confessions Of A Teenage Drama Queen - Original Soundtrack (2004) RESTORED free torrent downloads included crack, serial, keygen.


Attention!Information

Members of Guest cannot leave comments.