Sense - Madness (2002)

Download Now

Sense - Madness (2002)

Sense - Madness (2002)
EAC Rip | FLAC (Img) + Cue + Log ~ 400 Mb | MP3 CBR320 ~ 145 Mb
Scans Included (JPG, 300 dpi) | RAR 5% Recovery
Crossover Progressive Rock | Ipso Facto Records #IF 2006

"Sense is the "prog music" band of the French-Canadian artists François BÉRUBÉ and Stéphane DESBIENS. This band gets his own style between pop folk vocal music and a fusion of hard soul agressive rock. The prominent acoustic guitar immediately sets them apart from most current prog bands, bringing to mind HARMONIUM and the other great 1970's French-Canadian bands. The English-language vocals are up front in the mix, and the occasional harmony vocals can sound like STARCASTLE's or AMERICA's. Guests on Irish flute, recorder, and violin add distinctiveness to the band's style. Ready for a new musical experience?"

A young and promising Canadian Progressive/Art Rock band, haling from the Quebec territory. Sense were found in 2001 by multi-instrumentalist Stephane Desbiens and singer/guitarist Francois Berube. Along with flutist Sylvain Laberge and drummer Sylvain Berube they completed the original line-up. The next year, and with the help of some guest musicians, the band released its debut "Madness", released on Ipso Facto.

Their style contains evident Neo Prog elements with sporadic metal and folk touches but definitely with a strong YES influences, from the vocal lines to the elaborate arrangements. There are plenty of acoustic passages to be found and multi-vocal choirs to make this influence even more evident. While their sound is quite accesible, Sense throw in often passages clearly having a tension towards Folk, Space Rock and Classical Music, reminding at times Aussie progsters UNITOPIA. The tracks follow mainly a slow tempo, split between heavy vocal orientations with strong piano/synth/acoustic work and fair amounts of melody and more intricate musicianship with complex guitars and heavy breaks. Flutes pop out here and there to add a pastoral edge to an overall modern production. This mix of different and unrelated elements seems to work eventually quite good, as the composing skills of the Desbiens/Berube duo is on a efficient level.

"Madness" is a very nice work, easily accesible to fans of modern Progressive Rock with a variety of influences but always leaning towards the less complicated side of prog. Recommended, especially if you like YES.
~ progarchives.com
Prog Archives
***************

Sense - Madness (2002)

Track List:

01. We are living here [03:58]
02. Madness [03:58]
03. Be the One [04:14]
04. Desperate [07:34]
05. You and I [13:54]
06. The Fire burns [07:25]
07. I was there [08:58]
08. Hidden Track [03:24]

Exact Audio Copy V1.1 from 23. June 2015

EAC extraction logfile from 19. September 2015, 23:31

Sense / Madness

Used drive : TEAC CD-W516EB Adapter: 1 ID: 1

Read mode : Secure
Utilize accurate stream : Yes
Defeat audio cache : Yes
Make use of C2 pointers : No

Read offset correction

: 685
Overread into Lead-In and Lead-Out : No
Fill up missing offset samples with silence : Yes
Delete leading and trailing silent blocks : No
Null samples used in CRC calculations : Yes
Used interface
: Native Win32 interface for Win NT & 2000

Used output format : User Defined Encoder
Selected bitrate : 1024 kBit/s
Quality : High
Add ID3 tag : Yes
Command line compressor : C:\Program Files (x86)\FLAC_1.3.1\win64\flac.exe
Additional command line options : -6 -V -T "ARTIST=%artist%" -T "TITLE=%title%" -T "ALBUM=%albumtitle%" -T "DATE=%year%" -T "TRACKNUMBER=%tracknr%" -T "GENRE=%genre%" -T "COMMENT=ripped by wurensh for rutracker.org" %source% -o %dest%

TOC of the extracted CD Track | Start | Length | Start sector | End sector
--1 | 0:00.00 | 3:57.60 | 0 | 17834 2 | 3:57.60 | 3:57.40 | 17835 | 35649 3 | 7:55.25 | 4:13.20 | 35650 | 54644 4 | 12:08.45 | 7:33.13 | 54645 | 88632 5 | 19:41.58 | 13:53.40 | 88633 | 151147 6 | 33:35.23 | 7:24.36 | 151148 | 184483 7 | 40:59.59 | 8:57.14 | 184484 | 224772 8 | 49:56.73 | 3:23.20 | 224773 | 240017

Range status and errors

Selected range Filename Y:\EAC\wurensh\Sense\Sense - Madness.wav Peak level 97.7 %
Extraction speed 6.7 X
Range quality 100.0 %
Test CRC 0D91E974
Copy CRC 0D91E974
Copy OK

No errors occurred


AccurateRip summary

Track 1 accurately ripped (confidence 2) [32F5262F] (AR v2)
Track 2 accurately ripped (confidence 2) [03DBE027] (AR v2)
Track 3 accurately ripped (confidence 2) [3FC4D001] (AR v2)
Track 4 accurately ripped (confidence 2) [4A5CA9BF] (AR v2)
Track 5 accurately ripped (confidence 2) [207CDE6B] (AR v2)
Track 6 accurately ripped (confidence 2) [EEA8D677] (AR v2)
Track 7 accurately ripped (confidence 2) [0A266E4B] (AR v2)
Track 8 accurately ripped (confidence 2) [A32350A7] (AR v2)

All tracks accurately ripped

End of status report

- CUETools DB Plugin V2.1.6

[CTDB TOCID: i2s6PIpgGyzIUUQgyea0KMAm3I0-] found
Submit result: i2s6PIpgGyzIUUQgyea0KMAm3I0- has been confirmed
Track | CTDB Status
1 | (1/1) Accurately ripped
2 | (1/1) Accurately ripped
3 | (1/1) Accurately ripped
4 | (1/1) Accurately ripped
5 | (1/1) Accurately ripped
6 | (1/1) Accurately ripped
7 | (1/1) Accurately ripped
8 | (1/1) Accurately ripped

==== Log checksum 9F1508C45B50CC3798DBFD4ECE047CBD6D00001F609BF8E6805B06695B69AFD1 ====

foobar2000 1.2.6 / Dynamic Range Meter 1.1.1
log date: 2015-09-23 11:00:03

Analyzed: Sense / Madness

DR Peak RMS Duration Track

DR7 -0.50 dB -9.90 dB 3:58 01-We are living here
DR7 -0.20 dB -8.60 dB 3:58 02-Madness
DR8 -0.20 dB -11.02 dB 4:13 03-Be the One
DR7 -0.50 dB -9.79 dB 7:33 04-Desperate
DR8 -0.50 dB -10.80 dB 13:54 05-You and I
DR8 -0.20 dB -11.50 dB 7:24 06-The Fire burns
DR7 -0.20 dB -10.10 dB 8:57 07-I was there
DR7 -0.20 dB -8.85 dB 3:23 08-Hidden Track

Number of tracks: 8
Official DR value: DR8

Samplerate: 44100 Hz
Channels: 2
Bits per sample: 16
Bitrate: 955 kbps
Codec: FLAC

[CUETools log; Date: 23.09.2015 10:59:59; Version: 2.1.5]
[CTDB TOCID: i2s6PIpgGyzIUUQgyea0KMAm3I0-] found.
Track | CTDB Status
1 | (2/2) Accurately ripped
2 | (2/2) Accurately ripped
3 | (2/2) Accurately ripped
4 | (2/2) Accurately ripped
5 | (2/2) Accurately ripped
6 | (2/2) Accurately ripped
7 | (2/2) Accurately ripped
8 | (2/2) Accurately ripped
[AccurateRip ID: 000f3742-006a375c-6c0c8008] found.
Track [ CRC | V2 ] Status
01 [ee37e3ab|32f5262f] (2+2/4) Accurately ripped
02 [2295fb8e|03dbe027] (2+2/4) Accurately ripped
03 [d44a1bcb|3fc4d001] (2+2/4) Accurately ripped
04 [a131a402|4a5ca9bf] (0+2/2) Accurately ripped
05 [9fa79be4|207cde6b] (2+2/4) Accurately ripped
06 [2103aa08|eea8d677] (0+2/2) Accurately ripped
07 [61dfb848|0a266e4b] (0+2/2) Accurately ripped
08 8f143b6|a32350a7 (0+2/2) Accurately ripped

Track Peak [ CRC32 ] [W/O NULL] [ LOG ]
-- 97,7 [0D91E974] [799D06AE] CRC32
01 94,4 [F32050FB] [3DEBA0F7]
02 97,7 [D1AFAB0D] [C4F0FB3F]
03 97,7 [3D7CFF4A] [66374F94]
04 94,4 [D1824013] [AECEEFB7]
05 94,4 [F5095852] [46F3A234]
06 97,7 [1F8B5D10] [2A5B180C]
07 97,7 [335DB5C6] [32F82C08]
08 97,7 [70DAA61F] [779EDB2D]

Sense - Madness (2002)


DOWNLOAD LINKS
(Premium Recommended)


Links are Interchangeable - No Password - Single Extraction

Direct Download

Tags: Madness

Sense - Madness (2002) Download via Hotfile Rapidshare Fileserve Megaupload & FileSonic, Sense - Madness (2002) free torrent downloads included crack, serial, keygen.


Attention!Information

Members of Guest cannot leave comments.