Various Artists: The Princess Diaries 2 - Original Soundtrack (2004) [Japanese Release] RESTORED

Download Now


Various Artists: The Princess Diaries 2 - Original Soundtrack (2004) [Japanese Release] RESTORED
VA: The Princess Diaries 2 - Original Soundtrack (2004)
FLAC+CUE+LOG or MP3 CBR 320 | Complete Scanwork | 325 or 103 MB
Soundtrack / Pop / Rock / Various genres | Avex Trax # AVCW-12414

The soundtrack to Disney's 2004 Cinderella sequel The Princess Diaries 2: Royal Engagement (starring Anne Hathaway) offers a wide variety of young Disney stars (Lindsay Lohan, Jesse McCartney, Raven, Christy Carlson Romano), hot vocalists (American Idol's Kelly Clarkson, Norah Jones), and head-banging rockers (Avril Lavigne, Pink), and a duet between Raven and Julie Andrews.
Tracklist:

01. Kelly Clarkson -- Breakaway
02. Lindsay Lohan -- I Decide
03. Raven -- This Is My Time
04. Avril Lavigne -- I Always Get What I Want
05. Pink -- Trouble
06. Jesse McCartney -- Because You Live
07. Nora Jones & Adam Levy -- Love Me Tender
08. Steve Harwell -- Fun In The Sun
09. Christy Carlson Romano -- Let's Bounce
10. Wilson Phillips -- Dance, Dance, Dance
11. Rachel Stevens -- Fools
12. Renee Olstead -- A Love That Will Last
13. Julie Andrews -- Your Crowning Glory
14. Jonny Blu -- Miracles Happen

Exact Audio Copy V1.0 beta 1 from 15. November 2010

EAC extraction logfile from 8. March 2011, 0:28

Various / The Princess Diaries 2 (Original Soundtrack)

Used drive : PIONEER DVD-RW DVR-116D Adapter: 1 ID: 0

Read mode : Secure
Utilize accurate stream : Yes
Defeat audio cache : Yes
Make use of C2 pointers : No

Read offset correction

: 96
Overread into Lead-In and Lead-Out : No
Fill up missing offset samples with silence : Yes
Delete leading and trailing silent blocks : No
Null samples used in CRC calculations : Yes
Used interface
: Installed external ASPI interface

Used output format : Internal WAV Routines
Sample format : 44.100 Hz; 16 Bit; Stereo

TOC of the extracted CD Track | Start | Length | Start sector | End sector
--1 | 0:00.00 | 3:59.47 | 0 | 17971 2 | 3:59.47 | 3:14.30 | 17972 | 32551 3 | 7:14.02 | 4:26.33 | 32552 | 52534 4 | 11:40.35 | 2:33.67 | 52535 | 64076 5 | 14:14.27 | 3:13.43 | 64077 | 78594 6 | 17:27.70 | 3:19.17 | 78595 | 93536 7 | 20:47.12 | 2:56.15 | 93537 | 106751 8 | 23:43.27 | 3:28.53 | 106752 | 122404 9 | 27:12.05 | 3:18.62 | 122405 | 137316
10 | 30:30.67 | 2:01.48 | 137317 | 146439
11 | 32:32.40 | 3:12.40 | 146440 | 160879
12 | 35:45.05 | 3:32.17 | 160880 | 176796
13 | 39:17.22 | 2:42.38 | 176797 | 188984
14 | 41:59.60 | 4:19.15 | 188985 | 208424
15 | 48:51.00 | 25:07.00 | 219825 | 332849

Range status and errors

Selected range Filename C:\AvaxHome.ru\VA - The Princess Diaries 2 (OST 2004) [Japan, AVCW-12414]\VA - The Princess Diaries 2 (OST) [AVCW-12414].wav Peak level 97.7 %
Extraction speed 3.8 X
Range quality 99.9 %
Test CRC DAFDA4E3
Copy CRC DAFDA4E3
Copy OK

No errors occurred


AccurateRip summary

Track 1 not present in database
Track 2 not present in database
Track 3 not present in database
Track 4 not present in database
Track 5 not present in database
Track 6 not present in database
Track 7 not present in database
Track 8 not present in database
Track 9 not present in database
Track 10 not present in database
Track 11 not present in database
Track 12 not present in database
Track 13 not present in database
Track 14 not present in database

None of the tracks are present in the AccurateRip database

End of status report

==== Log checksum 5D0C7EFCA807862A5BD1825B3C635865DB9E0AEF48986652075F581FE204DD86 ====

Soundtrack Album Produced by Mitchell Leib and Dawn Solér.

Original Release Date: August 3, 2004
Japanese Release: January 26, 2005
Label: Avex Trax, Japan
Catalog No.: AVCW-12414 (AVCX-12414)
DOWNLOAD
(Premium Recommended)


All above links are interchangable. No password

Direct Download

Tags: Various, Artists, Princess, Diaries, Original, Soundtrack, Japanese, Release, RESTORED

Various Artists: The Princess Diaries 2 - Original Soundtrack (2004) [Japanese Release] RESTORED Download via Hotfile Rapidshare Fileserve Megaupload & FileSonic, Various Artists: The Princess Diaries 2 - Original Soundtrack (2004) [Japanese Release] RESTORED free torrent downloads included crack, serial, keygen.


Attention!Information

Members of Guest cannot leave comments.