Darkology - Fated to Burn (2015)

Download Now

Darkology - Fated to Burn (2015)

Darkology - Fated to Burn (2015)
EAC | Flac(Image) + Cue + Log & MP3 CBR 320Kbps
Prime Eon Media, PEM-CDDG-001 | ~ 532 or 158 Mb | Scans(600dpi, jpg) -> 103 Mb
Progressive / Power Metal

"The soaring vocals of Kelly Sundown Carpenter and the spontaneous combustion of the Michael Harris' spectacular licks are the most flagrant and symbolic factors of the DARKOLOGY sound, after five excruciatingly long years since their seminal debut album "Altered Reflections" nothing has changed and the precepts are numerous and all fulfilled in a perfect demonstration of the contemporary American Metal splendor..."


Tracklist:

01. Kill Me If You Can
02. Beyond the Grave
03. On Morrows Break
04. The Eyes of the Machine
05. Quantum Genocide
06. The Shadows of Oth
07. Fated to Burn
08. 21st Century Frankensteins (Nobot 2)
09. Festival of Fear
10. Holy
11. The Nightmare King
12.Your Hollow Soul (Bonus Track)

Musicians:

Mike Neal - Bass
Michael Harris - Guitars, Keyboards, Vocals
Brian Harris - Drums
Kelly Sundown Carpenter - Lead Vocals


Exact Audio Copy V1.0 beta 3 from 29. August 2011

EAC extraction logfile from 22. July 2015, 18:51

Darkology / Fated to Burn

Used drive : ATAPI iHAS122 W Adapter: 2 ID: 0

Read mode : Secure
Utilize accurate stream : Yes
Defeat audio cache : Yes
Make use of C2 pointers : No

Read offset correction

: 48
Overread into Lead-In and Lead-Out : No
Fill up missing offset samples with silence : Yes
Delete leading and trailing silent blocks : No
Null samples used in CRC calculations : Yes
Used interface
: Installed external ASPI interface

Used output format : User Defined Encoder
Selected bitrate : 1024 kBit/s
Quality : High
Add ID3 tag : No
Command line compressor : C:\Program Files\FLAC\flac.exe
Additional command line options : -V -8 -T "Date=%year%" -T "Genre=%genre%" -T"COMMENT=Ripped by Ilijan" -8 -V %source%

TOC of the extracted CD Track | Start | Length | Start sector | End sector
--1 | 0:00.00 | 5:52.66 | 0 | 26465 2 | 5:52.66 | 6:17.14 | 26466 | 54754 3 | 12:10.05 | 4:27.21 | 54755 | 74800 4 | 16:37.26 | 3:37.63 | 74801 | 91138 5 | 20:15.14 | 5:21.17 | 91139 | 115230 6 | 25:36.31 | 6:26.57 | 115231 | 144237 7 | 32:03.13 | 5:11.63 | 144238 | 167625 8 | 37:15.01 | 4:29.64 | 167626 | 187864 9 | 41:44.65 | 6:36.47 | 187865 | 217611
10 | 48:21.37 | 5:00.41 | 217612 | 240152
11 | 53:22.03 | 9:02.05 | 240153 | 280807
12 | 62:24.08 | 4:38.11 | 280808 | 301668

Range status and errors

Selected range Filename D:\ИЛИЯН\Darkology - Fated to Burn.wav Peak level 100.0 %
Extraction speed 4.3 X
Range quality 100.0 %
Test CRC 35E653C8
Copy CRC 35E653C8
Copy OK

No errors occurred


AccurateRip summary

Track 1 not present in database
Track 2 not present in database
Track 3 not present in database
Track 4 not present in database
Track 5 not present in database
Track 6 not present in database
Track 7 not present in database
Track 8 not present in database
Track 9 not present in database
Track 10 not present in database
Track 11 not present in database
Track 12 not present in database

None of the tracks are present in the AccurateRip database

End of status report

- CUETools DB Plugin V2.1.3

[CTDB TOCID: 5gKoSkoRu_xwgQ0Zicr7ba8kN1Q-] disk not present in database, Submit result: 5gKoSkoRu_xwgQ0Zicr7ba8kN1Q- has been uploaded

==== Log checksum 3DFA92D84F8FCCF12A4E077206D77A36ECE817EE03523F816543C59B0B7E2179 ====

foobar2000 1.2.9 / Dynamic Range Meter 1.1.1
log date: 2015-09-24 22:07:46

Analyzed: Darkology / Fated to Burn

DR Peak RMS Duration Track

DR6 0.00 dB -7.19 dB 5:53 01-Kill Me If You Can
DR7 0.00 dB -7.96 dB 6:17 02-Beyond the Grave
DR6 0.00 dB -7.07 dB 4:27 03-On Morrows Break
DR6 0.00 dB -7.14 dB 3:38 04-The Eyes of the Machine
DR7 0.00 dB -8.32 dB 5:21 05-Quantum Genocide
DR6 0.00 dB -7.59 dB 6:27 06-The Shadows of Oth
DR6 0.00 dB -7.86 dB 5:12 07-Fated to Burn
DR7 0.00 dB -8.30 dB 4:30 08-21st Century Frankensteins (Nobot 2)
DR7 0.00 dB -8.44 dB 6:37 09-Festival of Fear
DR5 0.00 dB -6.84 dB 5:01 10-Holy
DR7 0.00 dB -8.84 dB 9:02 11-Nightmare King
DR7 0.00 dB -8.57 dB 4:38 12-Your Hollow Soul (Bonus Track)

Number of tracks: 12
Official DR value: DR7

Samplerate: 44100 Hz
Channels: 2
Bits per sample: 16
Bitrate: 1045 kbps
Codec: FLAC

[CUETools log; Date: 24.09.2015 22:01:39; Version: 2.1.4]
[CTDB TOCID: 5gKoSkoRu_xwgQ0Zicr7ba8kN1Q-] found.
Track | CTDB Status
1 | (2/2) Accurately ripped
2 | (2/2) Accurately ripped
3 | (2/2) Accurately ripped
4 | (2/2) Accurately ripped
5 | (2/2) Accurately ripped
6 | (2/2) Accurately ripped
7 | (2/2) Accurately ripped
8 | (2/2) Accurately ripped
9 | (2/2) Accurately ripped
10 | (2/2) Accurately ripped
11 | (2/2) Accurately ripped
12 | (2/2) Accurately ripped
[AccurateRip ID: 001d071b-010fd27a-a80fb60c] found.
Track [ CRC | V2 ] Status
01 [7ed620a8|62d9a384] (0+0/1) No match
02 [a4b5a35c|988195c8] (0+0/1) No match
03 [8f2f077a|6f49e87e] (0+0/1) No match
04 [3dec875f|dffd2593] (0+0/1) No match
05 [ce9b2967|ba463cd2] (0+0/1) No match
06 [141e7080|2a161caf] (0+0/1) No match
07 [39584eb1|ef5e22c9] (0+0/1) No match
08 [81c107f9|28d90838] (0+0/1) No match
09 [308833cc|68204c97] (0+0/1) No match
10 [2295c6e7|4384092b] (0+0/1) No match
11 [017f0468|1d456663] (0+0/1) No match
12 [e6d07caf|2a146b67] (0+0/1) No match
Offsetted by -6:
01 [df91b69a] (0/1) No match (V2 was not tested)
02 [9282b39e] (0/1) No match (V2 was not tested)
03 [a695c910] (0/1) No match (V2 was not tested)
04 [784a6e54] (0/1) No match (V2 was not tested)
05 [c1c803fc] (0/1) No match (V2 was not tested)
06 [5719b6f5] (0/1) No match (V2 was not tested)
07 [0964363d] (0/1) No match (V2 was not tested)
08 [6a187121] (0/1) No match (V2 was not tested)
09 [4f9dbb26] (0/1) No match (V2 was not tested)
10 [aa591db8] (0/1) No match (V2 was not tested)
11 [dc6d915c] (0/1) No match (V2 was not tested)
12 [daa624a1] (0/1) No match (V2 was not tested)

Track Peak [ CRC32 ] [W/O NULL] [ LOG ]
-- 100,0 [35E653C8] [3DE2DE56] CRC32
01 100,0 [D132457D] [D57F5CB0]
02 100,0 [28EC6B2B] [81548C42]
03 100,0 [2F2D95A5] [637FF930]
04 100,0 [CFD72548] [48109CDD]
05 100,0 [C7AF0E7F] [0AE2DA1D]
06 100,0 [A90AEBA5] [8060CB38]
07 100,0 [04511F9C] [58E1CF19]
08 100,0 [F321B05E] [197F72F0]
09 100,0 [38660961] [565546C2]
10 100,0 0AEE30D [9CE04BA4]
11 100,0 [24FEFC45] [960C8D79]
12 100,0 [21E5E5D7] [CC7745AA]

Darkology - Fated to Burn (2015)

DOWNLOAD:
Buy Premium To Support Me & Get Resumable Support & Max Speed


Links are Interchangeable - No Password

Direct Download

Tags: Darkology

Darkology - Fated to Burn (2015) Download via Hotfile Rapidshare Fileserve Megaupload & FileSonic, Darkology - Fated to Burn (2015) free torrent downloads included crack, serial, keygen.


Attention!Information

Members of Guest cannot leave comments.