Lynyrd Skynyrd - Edge Of Forever (1999)

Download Now

Lynyrd Skynyrd - Edge Of Forever (1999)

Lynyrd Skynyrd - Edge Of Forever (1999)
Rock | 1cd | EAC Rip | Wv + Cue + Log | covers
SPV 085-29642 CD | rel: 1999 | 450Mb

From the opening sound of a rattlesnake rattle, it is obvious that the newer members of Lynyrd Skynyrd are stepping out of the shadows and into the limelight where they belong. After all, Rick Medlocke, the "rattlesnake rocker" was himself a powerful frontman for his band Blackfoot in the '70s, while Hughie Thomasson performed the same duties for the Outlaws. On Edge of Forever, both Medlocke and Thomasson are heard with their individually unique guitar sounds.
Unfortunately, they are still held back from performing any lead vocals, a chore either man could easily carry off. The opening song "Workin'" assaults the senses with a massive guitar attack that hooks the listener from the outset. Johnny Van Zant's vocals are as close to his late brother Ronnie Van Zant as they have ever been, and on the next song, "Full Moon Night," the swamp rock sound contains some definite early-Skynyrd influence, but also has hints of both the Blackfoot and Outlaws sounds. "Preacher Man" rocks with a refreshingly different feel; it no longer sounds like the boys are trying to imitate the Street Survivors record. The rowdiness that surrounds Southern rock comes to a head on "Mean Streets," with Gary Rossington, Thomasson, and Medlocke smoking across the fretboards in true rebel fashion. Next up is "Tomorrow's Goodbye," a ballad that can only be called modern country. The song is the highlight of the album, with Johnny Van Zant singing about saving the planet, and there is even a mention of brother Ronnie in the lyric, accented with one of Rossington's "Freebird" guitar notes that comes out of left field straight to your heart. The title track is a millennium song that returns to the old Skynyrd sound, while "Gone Fishin'" is one of the record's weaker moments. "Fishin'" is more filler than killer. Actually, the next song, "Through It All" is a bit weak as well, when compared to the rest of the album. "Money Back Guarantee" has some excellent piano work from Bill Powell, and "Get It While the Gettin's Good" is a very nice rocker, which leads into the power ballad "Rough Around the Edges," another of the better tracks here. "FLA" closes the set, a boogie-woogie rocker that makes a fitting closer for an overall good rock & roll record. While there are those who feel that Lynyrd Skynyrd died with the plane crash of 1977, one listen to Edge of Forever proves that their legacy is alive and well in 1999, and Lynyrd Skynyrd has more than a few good ideas left in their collective head.
~Allmusic

Track listing
01. Workin' (4:54)
02. Full Moon Night (3:45)
03. Preacher Man (4:34)
04. Mean Streets (4:50)
05. Tomorrow's Goodbye (5:08)
06. Edge Of Forever (4:25)
07. Gone Fishin' (4:23)
08. Through It All (5:30)
09. Money Back Guarantee (4:03)
10. G.W.T.G.G. (4:05)
11. Rough Around The Edges (5:07)
12. FLA (3:54)
~ (54:38)

Personnel
- Johnny Van Zant - vocals
- Gary Rossington - lead, rhythm, slide and acoustic guitars
- Billy Powell - piano, keyboards
- Leon Wilkeson - bass
- Rickey Medlocke - lead, rhythm, slide and acoustic guitars, vocals
- Hughie Thomasson - lead, rhythm, slide and acoustic guitars, vocals
- Kenny Aronoff - drums

Exact Audio Copy V0.99 prebeta 4 from 23. January 2008

EAC extraction logfile from 5. August 2008, 7:42

Lynyrd Skynyrd / Edge Of Forever

Used drive : TSSTcorpCD/DVDW SH-S182M Adapter: 4 ID: 0

Read mode : Secure
Utilize accurate stream : Yes
Defeat audio cache : Yes
Make use of C2 pointers : No

Read offset correction

: 6
Overread into Lead-In and Lead-Out : No
Fill up missing offset samples with silence : Yes
Delete leading and trailing silent blocks : No
Null samples used in CRC calculations : Yes
Used interface
: Installed external ASPI interface

Used output format : Internal WAV Routines
Sample format : 44.100 Hz; 16 Bit; Stereo

TOC of the extracted CD Track | Start | Length | Start sector | End sector
--1 | 0:00.00 | 4:54.25 | 0 | 22074 2 | 4:54.25 | 3:45.15 | 22075 | 38964 3 | 8:39.40 | 4:34.32 | 38965 | 59546 4 | 13:13.72 | 4:50.23 | 59547 | 81319 5 | 18:04.20 | 5:07.62 | 81320 | 104406 6 | 23:12.07 | 4:24.65 | 104407 | 124271 7 | 27:36.72 | 4:22.70 | 124272 | 143991 8 | 31:59.67 | 5:29.60 | 143992 | 168726 9 | 37:29.52 | 4:02.53 | 168727 | 186929
10 | 41:32.30 | 4:04.52 | 186930 | 205281
11 | 45:37.07 | 5:06.38 | 205282 | 228269
12 | 50:43.45 | 3:54.12 | 228270 | 245831

Range status and errors

Selected range Filename F:\Release\Lynyrd Skynyrd - Edge of Forever\Lynyrd Skynyrd - Edge Of Forever.wav Peak level 98.8 %
Range quality 100.0 %
Test CRC C2797FD2
Copy CRC C2797FD2
Copy OK

No errors occurred


AccurateRip summary

Track 1 accurately ripped (confidence 8) [36757C2C]
Track 2 accurately ripped (confidence 8) [E8240542]
Track 3 accurately ripped (confidence 8) [3840D0ED]
Track 4 accurately ripped (confidence 8) [24BC1585]
Track 5 accurately ripped (confidence 8) [3EB4D131]
Track 6 accurately ripped (confidence 8) [53B6A3CD]
Track 7 accurately ripped (confidence 8) [5068F778]
Track 8 accurately ripped (confidence 8) [3FE89953]
Track 9 accurately ripped (confidence 8) [8E595A4A]
Track 10 accurately ripped (confidence 8) [E863435D]
Track 11 accurately ripped (confidence 7) [C2807DE3]
Track 12 accurately ripped (confidence 8) [F8D488BE]

All tracks accurately ripped

End of status report

[CUETools log; Date: 2015.09.24. 15:25:23; Version: 2.1.5]
[CTDB TOCID: c1H4UBZRDMTElFk2t7oIKHU3mTs-] found.
Track | CTDB Status
1 | (55/58) Accurately ripped
2 | (55/58) Accurately ripped
3 | (55/58) Accurately ripped
4 | (56/58) Accurately ripped
5 | (56/58) Accurately ripped
6 | (56/58) Accurately ripped
7 | (56/58) Accurately ripped
8 | (54/58) Accurately ripped
9 | (55/58) Accurately ripped
10 | (55/58) Accurately ripped
11 | (55/58) Accurately ripped
12 | (56/58) Accurately ripped
[AccurateRip ID: 00188f93-00e56aed-af0ccd0c] found.
Track [ CRC | V2 ] Status
01 [36757c2c|ce9e11cd] (036+044/106) Accurately ripped
02 [e8240542|646773fd] (036+044/106) Accurately ripped
03 [3840d0ed|7ed8b071] (036+044/106) Accurately ripped
04 [24bc1585|759c7bdf] (036+044/106) Accurately ripped
05 [3eb4d131|1c9a64b4] (036+044/106) Accurately ripped
06 [53b6a3cd|f1e7b5db] (036+044/106) Accurately ripped
07 [5068f778|6dde196d] (036+044/106) Accurately ripped
08 [3fe89953|a61f9880] (035+043/104) Accurately ripped
09 [8e595a4a|8d2c0372] (036+043/106) Accurately ripped
10 [e863435d|b48a66ae] (036+043/104) Accurately ripped
11 [c2807de3|6272d139] (035+043/104) Accurately ripped
12 [f8d488be|ef6f9b9a] (036+043/104) Accurately ripped
Offsetted by 16:
01 [5d3fe29c] (012/106) Accurately ripped
02 [077c22b2] (012/106) Accurately ripped
03 [0ff1dd5d] (012/106) Accurately ripped
04 [77e3c1e5] (012/106) Accurately ripped
05 [4662a571] (012/106) Accurately ripped
06 [69fcc13d] (012/106) Accurately ripped
07 [a9831491] (012/106) Accurately ripped
08 [884312aa] (012/104) Accurately ripped
09 [e19cff5a] (013/106) Accurately ripped
10 [98f6d23d] (012/104) Accurately ripped
11 [fcd50d63] (012/104) Accurately ripped
12 [2b668ad6] (012/104) Accurately ripped

Track Peak [ CRC32 ] [W/O NULL] [ LOG ]
-- 98,8 [C2797FD2] [559AD094] CRC32
01 98,8 [86D23604] [0C9214D7]
02 98,8 [85DC9C13] [E5B4423C]
03 98,8 [CA3EE91C] [303175BC]
04 98,8 [F0301C18] B40EEF8
05 98,8 [2686E037] [82E33DEE]
06 98,8 [C91BC5C1] [29E934F7]
07 98,8 [FABE820E] [71B01CAC]
08 98,8 [FE2074A6] [997F4E27]
09 98,8 [FF55871E] [5DA4B505]
10 98,8 [8103F953] [32D51676]
11 98,8 [184F60FD] [A1040D60]
12 98,8 [5F125754] [C9797091]

original uploader unknown, found in my archive
password: asd
DOWNLOAD LINKS:
Buy Premium To Support Me & Get Resumable Support & Max Speed


Links are Interchangeable - No Password - Single Extraction

Direct Download

Tags: Lynyrd, Skynyrd, Forever

Lynyrd Skynyrd - Edge Of Forever (1999) Download via Hotfile Rapidshare Fileserve Megaupload & FileSonic, Lynyrd Skynyrd - Edge Of Forever (1999) free torrent downloads included crack, serial, keygen.


Attention!Information

Members of Guest cannot leave comments.