Lindsay Lohan - Speak (2004) [1st Japanese pressing with Bonus Tracks] RESTORED

Download Now


Lindsay Lohan - Speak (2004) [1st Japanese pressing with Bonus Tracks] RESTORED
Lindsay Lohan - Speak (2004) [1st Japanese pressing]
FLAC+CUE+LOG or MP3 CBR 320 | Complete Scanwork | DATA | 438 or 140 MB
Pop / Pop Rock | Casablanca Records / Universal Music Japan # UICU-9010

Speak is the debut studio album by American recording artist Lindsay Lohan. Album was peaking at number four on the Billboard 200 and earning Platinum certification by early 2005. Lohan cowrote six of the twelve songs on the album. The album was praised by Linda McGee of RTÉ, who awarded it 4 out of 5 stars and commented that "Speak opens with all the raw emotion and teenage angst that you'd expect from an artist of Lohan's age" and that, "while her vocals are not sensational, their gritty edge keeps Lohan more than afloat throughout this album" as well as comparing the album to the early music of Avril Lavigne. The album was the first high-seller from Casablanca Records in several years, selling 1,000,000 units in the U.S.
Tracklist:

01. First
02. Nobody 'Til You
03. Symptoms Of You
04. Speak
05. Over
06. Something I Never Had
07. Anything But Me
08. Disconnected
09. To Know Your Name
10. Very Last Moment In Time
11. Magnet
12. Rumors
13. Rumors (Sharp Boys Remix Radio Edit) onus Track
14. Over (Full Phatt Remix) onus Track
15. Rumors (Music Video.mov) [DATA Track]

Exact Audio Copy V1.0 beta 1 from 15. November 2010

EAC extraction logfile from 16. January 2011, 18:21

Lindsay Lohan / Speak (UICU-9010)

Used drive : PIONEER DVD-RW DVR-116D Adapter: 1 ID: 0

Read mode : Secure
Utilize accurate stream : Yes
Defeat audio cache : Yes
Make use of C2 pointers : No

Read offset correction

: 96
Overread into Lead-In and Lead-Out : No
Fill up missing offset samples with silence : Yes
Delete leading and trailing silent blocks : No
Null samples used in CRC calculations : Yes
Used interface
: Installed external ASPI interface

Used output format : Internal WAV Routines
Sample format : 44.100 Hz; 16 Bit; Stereo

TOC of the extracted CD Track | Start | Length | Start sector | End sector
--1 | 0:00.00 | 3:29.07 | 0 | 15681 2 | 3:29.07 | 3:38.43 | 15682 | 32074 3 | 7:07.50 | 2:56.27 | 32075 | 45301 4 | 10:04.02 | 3:47.48 | 45302 | 62374 5 | 13:51.50 | 3:38.10 | 62375 | 78734 6 | 17:29.60 | 3:39.37 | 78735 | 95196 7 | 21:09.22 | 3:16.33 | 95197 | 109929 8 | 24:25.55 | 3:34.40 | 109930 | 126019 9 | 28:00.20 | 3:21.35 | 126020 | 141129
10 | 31:21.55 | 3:29.22 | 141130 | 156826
11 | 34:51.02 | 3:15.23 | 156827 | 171474
12 | 38:06.25 | 3:17.02 | 171475 | 186251
13 | 41:23.27 | 3:45.00 | 186252 | 203126
14 | 45:08.27 | 3:38.11 | 203127 | 219487
15 | 51:18.38 | 17:32.38 | 230888 | 309825

Range status and errors

Selected range Filename C:\AvaxHome.ru\Lindsay Lohan - Speak (2004) [Japan 2005]\Lindsay Lohan - Speak (UICU-9010).wav Peak level 100.0 %
Extraction speed 2.6 X
Range quality 99.9 %
Test CRC C193BD54
Copy CRC C193BD54
Copy OK

No errors occurred


AccurateRip summary

Track 1 cannot be verified as accurate (confidence 1) [4DC7E13A], AccurateRip returned [56D70B07]
Track 2 cannot be verified as accurate (confidence 1) [6673C292], AccurateRip returned [13CE4A42]
Track 3 cannot be verified as accurate (confidence 1) [5CC430C1], AccurateRip returned [7F38156D]
Track 4 cannot be verified as accurate (confidence 1) [325C396C], AccurateRip returned [862477CE]
Track 5 cannot be verified as accurate (confidence 1) [C224C2E6], AccurateRip returned [C41A2EED]
Track 6 cannot be verified as accurate (confidence 1) [48AAA69A], AccurateRip returned [315C6D05]
Track 7 cannot be verified as accurate (confidence 1) [E0519038], AccurateRip returned [36DFC456]
Track 8 cannot be verified as accurate (confidence 1) [9600244C], AccurateRip returned 6712DD7
Track 9 cannot be verified as accurate (confidence 1) [7FBFE0AB], AccurateRip returned [27DB9362]
Track 10 cannot be verified as accurate (confidence 1) [FAA39AE3], AccurateRip returned [D1694171]
Track 11 cannot be verified as accurate (confidence 1) [96B5B804], AccurateRip returned [6CDF188F]
Track 12 cannot be verified as accurate (confidence 1) [4EB82703], AccurateRip returned [E252A8EA]
Track 13 cannot be verified as accurate (confidence 1) [6D3082AA], AccurateRip returned [FAEDBA84]
Track 14 cannot be verified as accurate (confidence 1) [5309F5EF], AccurateRip returned [01D4084D]

No tracks could be verified as accurate
You may have a different pressing from the one(s) in the database

End of status report

==== Log checksum C3134986D5CE87C3F336D6F01D73BEEA1D837C4251F67B4038D755CCD326AEAE ====

Executive Produced by Tommy Mottola
Mastered by Ted Jensen at Sterling Sound, NYC, except
"Rumores" Mastered by Herb Powers at The Hit Factory, NYC.
All additional information read inside the booklet.

Original Release Date: December 7, 2004
Release Date: January 26, 2005
Label: Casablanca / Universal Japan
Catalog No.: UICU-9010
DOWNLOAD:
Buy Premium To Support Me & Get Resumable Support & Max Speed


Links are Interchangeable - No Password

Direct Download

Tags: Lindsay, Japanese, pressing, Tracks, RESTORED

Lindsay Lohan - Speak (2004) [1st Japanese pressing with Bonus Tracks] RESTORED Download via Hotfile Rapidshare Fileserve Megaupload & FileSonic, Lindsay Lohan - Speak (2004) [1st Japanese pressing with Bonus Tracks] RESTORED free torrent downloads included crack, serial, keygen.


Attention!Information

Members of Guest cannot leave comments.