Bad Company - Burnin' Sky (1977) [2007, Warner Music WPCR-12545]

Download Now

Bad Company - Burnin' Sky (1977) [2007, Warner Music WPCR-12545]

Bad Company - Burnin' Sky (1977)
EAC | Flac(Image) + Cue + Log & MP3 CBR 320Kbps
Warner Music, WPCR-12545 | ~ 289 or 106 Mb | Scans(600dpi, jpg) -> 79 Mb
Classic Rock / Blues Rock

"This is the album that got ignored when they made a compilation of the early Bad Co's best work, so why did it get ignored when it's so good. The title track alone is reason enough to buy this album as it showcases the best aspects of the band and especially Paul Rogers' voice..."


Tracklist:

01. Burnin' Sky 5:09
02. Morning Sun 4:07
03. Leaving You 3:24
04. Like Water 4:19
05. Knapsack 1:21
06. Everything I Need 3:24
07. Heartbeat 2:38
08. Peace Of Mind 3:25
09. Passing Time 2:31
10. Too Bad 3:53
11. Man Needs Woman 3:46
12. Master Of Ceremony 7:13

Exact Audio Copy V1.1 from 23. June 2015

EAC extraction logfile from 22. September 2015, 21:43

Bad Company / Burnin' Sky (WPCR-12545)

Used drive : PLEXTOR DVDR PX-891SA Adapter: 1 ID: 0

Read mode : Secure
Utilize accurate stream : Yes
Defeat audio cache : Yes
Make use of C2 pointers : No

Read offset correction

: 6
Overread into Lead-In and Lead-Out : No
Fill up missing offset samples with silence : Yes
Delete leading and trailing silent blocks : No
Null samples used in CRC calculations : Yes
Used interface
: Native Win32 interface for Win NT & 2000

Used output format : User Defined Encoder
Selected bitrate : 1024 kBit/s
Quality : High
Add ID3 tag : No
Command line compressor : C:\Program Files\Exact Audio Copy\Flac\flac.exe
Additional command line options : -V -8 -T "Genre=%genre%" -T "Artist=%artist%" -T "Title=%title%" -T "Album=%albumtitle%" -T "Date=%year%" -T "Tracknumber=%tracknr%" -T "Comment=%comment%" %source%

TOC of the extracted CD Track | Start | Length | Start sector | End sector
--1 | 0:00.00 | 5:09.17 | 0 | 23191 2 | 5:09.17 | 4:06.73 | 23192 | 41714 3 | 9:16.15 | 3:23.47 | 41715 | 56986 4 | 12:39.62 | 4:19.08 | 56987 | 76419 5 | 16:58.70 | 1:20.40 | 76420 | 82459 6 | 18:19.35 | 3:23.67 | 82460 | 97751 7 | 21:43.27 | 2:37.63 | 97752 | 109589 8 | 24:21.15 | 3:25.05 | 109590 | 124969 9 | 27:46.20 | 2:30.40 | 124970 | 136259
10 | 30:16.60 | 3:52.40 | 136260 | 153699
11 | 34:09.25 | 3:45.52 | 153700 | 170626
12 | 37:55.02 | 7:13.23 | 170627 | 203124

Range status and errors

Selected range Filename H:\dafnaplus\Bad Company\Burnin' Sky\Bad Company - Burnin' Sky (WPCR-12545).wav Peak level 100.0 %
Extraction speed 7.9 X
Range quality 100.0 %
Test CRC 6BF5DE6B
Copy CRC 6BF5DE6B
Copy OK

No errors occurred


AccurateRip summary

Track 1 accurately ripped (confidence 5) [8579A8A9] (AR v2)
Track 2 accurately ripped (confidence 5) [F4C32A57] (AR v2)
Track 3 accurately ripped (confidence 5) [CCA121DA] (AR v2)
Track 4 accurately ripped (confidence 5) [C6B4008F] (AR v2)
Track 5 accurately ripped (confidence 5) [7F8D0090] (AR v2)
Track 6 accurately ripped (confidence 5) [8181CF1E] (AR v2)
Track 7 accurately ripped (confidence 5) [E3B78835] (AR v2)
Track 8 accurately ripped (confidence 5) [F263F0F2] (AR v2)
Track 9 accurately ripped (confidence 5) [9110C1CA] (AR v2)
Track 10 accurately ripped (confidence 5) [D285A957] (AR v2)
Track 11 accurately ripped (confidence 5) [3F020391] (AR v2)
Track 12 accurately ripped (confidence 5) [359B0E3B] (AR v2)

All tracks accurately ripped

End of status report

- CUETools DB Plugin V2.1.6

[CTDB TOCID: Hn53BRlYFdWALIUX6heZmNs3QaU-] found
Submit result: Hn53BRlYFdWALIUX6heZmNs3QaU- has been confirmed
Track | CTDB Status
1 | (20/20) Accurately ripped
2 | (20/20) Accurately ripped
3 | (20/20) Accurately ripped
4 | (20/20) Accurately ripped
5 | (20/20) Accurately ripped
6 | (20/20) Accurately ripped
7 | (20/20) Accurately ripped
8 | (20/20) Accurately ripped
9 | (20/20) Accurately ripped
10 | (20/20) Accurately ripped
11 | (20/20) Accurately ripped
12 | (19/20) Accurately ripped

==== Log checksum D6A164D21C62101D4A1260B1CB04FA89B2A16C4ACEED3FB1996558909E9C2C8D ====

foobar2000 1.2.9 / Dynamic Range Meter 1.1.1
log date: 2015-09-26 08:27:06

Analyzed: Bad Company / Burnin' Sky (WPCR-12545)

DR Peak RMS Duration Track

DR9 0.00 dB -10.91 dB 5:09 01-Burnin' Sky
DR9 0.00 dB -11.25 dB 4:07 02-Morning Sun
DR8 0.00 dB -9.94 dB 3:24 03-Leaving You
DR10 0.00 dB -11.65 dB 4:19 04-Like Water
DR12 -11.71 dB -26.17 dB 1:21 05-Knapsack
DR10 0.00 dB -11.53 dB 3:24 06-Everything I Need
DR9 0.00 dB -10.12 dB 2:38 07-Heartbeat
DR8 0.00 dB -10.22 dB 3:25 08-Peace Of Mind
DR9 0.00 dB -10.88 dB 2:31 09-Passing Time
DR9 0.00 dB -9.87 dB 3:53 10-Too Bad
DR9 0.00 dB -10.32 dB 3:46 11-Man Needs Woman
DR12 0.00 dB -14.84 dB 7:13 12-Master Of Ceremony

Number of tracks: 12
Official DR value: DR10

Samplerate: 44100 Hz
Channels: 2
Bits per sample: 16
Bitrate: 869 kbps
Codec: FLAC

[CUETools log; Date: 26.09.2015 8:22:28; Version: 2.1.4]
[CTDB TOCID: Hn53BRlYFdWALIUX6heZmNs3QaU-] found.
Track | CTDB Status
1 | (21/21) Accurately ripped
2 | (21/21) Accurately ripped
3 | (21/21) Accurately ripped
4 | (21/21) Accurately ripped
5 | (21/21) Accurately ripped
6 | (21/21) Accurately ripped
7 | (21/21) Accurately ripped
8 | (21/21) Accurately ripped
9 | (21/21) Accurately ripped
10 | (21/21) Accurately ripped
11 | (21/21) Accurately ripped
12 | (20/21) Accurately ripped
[AccurateRip ID: 00137b7e-00b294cd-850a940c] found.
Track [ CRC | V2 ] Status
01 [22c5ced5|8579a8a9] (04+05/40) Accurately ripped
02 [98c93ca2|f4c32a57] (04+05/42) Accurately ripped
03 [6d2acc6b|cca121da] (04+05/41) Accurately ripped
04 [619b8172|c6b4008f] (04+05/41) Accurately ripped
05 [11f1bed5|7f8d0090] (04+05/41) Accurately ripped
06 [eca48d4d|8181cf1e] (04+05/41) Accurately ripped
07 a5037e3|e3b78835 (04+05/41) Accurately ripped
08 [d1a1f5db|f263f0f2] (04+05/41) Accurately ripped
09 [76b3b0b0|9110c1ca] (04+05/41) Accurately ripped
10 [e05a3e40|d285a957] (03+05/40) Accurately ripped
11 [a3d41be6|3f020391] (04+05/41) Accurately ripped
12 [872aec10|359b0e3b] (03+05/40) Accurately ripped
Offsetted by 1328:
01 [6e6801ea] (20/40) Accurately ripped
02 [8661062c] (22/42) Accurately ripped
03 [30c6f8c7] (21/41) Accurately ripped
04 [ab01dc6b] (21/41) Accurately ripped
05 [4a8afca8] (21/41) Accurately ripped
06 [7775a595] (21/41) Accurately ripped
07 [772dc0a6] (21/41) Accurately ripped
08 [0c216ad4] (21/41) Accurately ripped
09 [db40d91c] (21/41) Accurately ripped
10 [a377f7a0] (21/40) Accurately ripped
11 [521b8e01] (21/41) Accurately ripped
12 [22bcf12e] (21/40) Accurately ripped
Offsetted by -6:
01 [f4b76d86] (00/40) No match (V2 was not tested)
02 ef2fe11 (00/42) No match (V2 was not tested)
03 d222cfe (00/41) No match (V2 was not tested)
04 [e2fa2dc5] (00/41) No match (V2 was not tested)
05 [58534621] (00/41) No match (V2 was not tested)
06 [ebf6188a] (00/41) No match (V2 was not tested)
07 [8d01ba80] (00/41) No match (V2 was not tested)
08 [86fd6ac3] (00/41) No match (V2 was not tested)
09 [9a3207c5] (00/41) No match (V2 was not tested)
10 [45e49ecd] (00/40) No match (V2 was not tested)
11 [20eb94f5] (00/41) No match (V2 was not tested)
12 [cd56a601] (00/40) No match (V2 was not tested)
Offsetted by 664:
01 [c21fc423] (00/40) No match (V2 was not tested)
02 [3c3ba6c2] (00/42) No match (V2 was not tested)
03 [4f8be64f] (00/41) No match (V2 was not tested)
04 [7e33c397] (00/41) No match (V2 was not tested)
05 [618ee353] (00/41) No match (V2 was not tested)
06 [04f89009] (00/41) No match (V2 was not tested)
07 [1fe807f5] (00/41) No match (V2 was not tested)
08 [3ff2300d] (00/41) No match (V2 was not tested)
09 [02faa7bb] (00/41) No match (V2 was not tested)
10 [ddb80ea5] (00/40) No match (V2 was not tested)
11 [200447a1] (00/41) No match (V2 was not tested)
12 [532085e8] (00/40) No match (V2 was not tested)

Track Peak [ CRC32 ] [W/O NULL] [ LOG ]
-- 99,9 [6BF5DE6B] [D9402801] CRC32
01 99,9 [14018B8F] [8B24CF0D]
02 99,9 [8730C85F] [94FD0ECF]
03 99,9 [50938217] [059AA750]
04 99,9 [E1C2435D] [D9ED3944]
05 25,9 [4DED7647] [624D515F]
06 99,9 [D520B0D2] [D140A3B4]
07 99,9 [4F7CA435] [C96044EC]
08 99,9 [D17F0330] [FBB51284]
09 99,9 [4DA1C9C4] [F843337F]
10 99,9 [8E0713A5] [1CFB3A65]
11 99,9 [F33786E5] [202D2652]
12 99,9 [09C75097] [8ADDDD15]

Bad Company - Burnin' Sky (1977) [2007, Warner Music WPCR-12545]

All thanks go to dafnaplus



Download Bad Company - Burnin' Sky (1977):

Download Links:
(Premium Recommended)


All above links are interchangable. No password

Direct Download

Tags: Company, Burnin, Warner

Bad Company - Burnin' Sky (1977) [2007, Warner Music WPCR-12545] Download via Hotfile Rapidshare Fileserve Megaupload & FileSonic, Bad Company - Burnin' Sky (1977) [2007, Warner Music WPCR-12545] free torrent downloads included crack, serial, keygen.


Attention!Information

Members of Guest cannot leave comments.