Public Image Ltd. - What the World Needs Now... (2015) [Universal Music Japan, UICY-15426]

Download Now

Public Image Ltd. - What the World Needs Now... (2015) [Universal Music Japan, UICY-15426]

Public Image Ltd. - What the World Needs Now... (2015)
EAC | Flac(Image) + Cue + Log & MP3 CBR 320Kbps
Universal Music Japan, UICY-15426 | ~ 370 or 135 Mb | Scans(png) -> 190 Mb
Alternative Rock / Post Punk

"As a preface, let me get the usual charter member version of Public Image Ltd (PiL) versus the subsequent version of the band controversy out of the way first. This PiL is not the one of the late-1970s/early-1980s, which featured charter members, Keith Levene and Jah Wobble. Comparisons have always been made, and probably always will be, but with nearly 40 years passing since then, in tandem with the fact the new PiL band members have remained consistent since John Lydon resurrected Public Image Ltd nearly a decade ago, this new incarnation can be considered its own valid entity now, complete with its own unique sound..."


Tracklist:

01 Double Trouble
02 Know Now
03 Bettie Page
04 C'est La Vie
05 Spice Of Choice
06 The One
07 Big Blue Sky
08 Whole Life Time
09 I'm Not Satisfied
10 Corporate
11 Shoom
12 Turkey Tits

Exact Audio Copy V1.1 from 23. June 2015

EAC extraction logfile from 20. September 2015, 9:20

PiL / What The World Needs Now... SHM-CD

Used drive : PLEXTOR BD-R PX-B950SA Adapter: 1 ID: 1

Read mode : Secure
Utilize accurate stream : Yes
Defeat audio cache : Yes
Make use of C2 pointers : No

Read offset correction

: 6
Overread into Lead-In and Lead-Out : No
Fill up missing offset samples with silence : Yes
Delete leading and trailing silent blocks : No
Null samples used in CRC calculations : Yes
Used interface
: Native Win32 interface for Win NT & 2000

Used output format : Internal WAV Routines
Sample format : 44.100 Hz; 16 Bit; Stereo

TOC of the extracted CD Track | Start | Length | Start sector | End sector
--1 | 0:00.00 | 3:52.34 | 0 | 17433 2 | 3:52.34 | 2:45.54 | 17434 | 29862 3 | 6:38.13 | 3:21.33 | 29863 | 44970 4 | 9:59.46 | 6:08.04 | 44971 | 72574 5 | 16:07.50 | 5:43.45 | 72575 | 98344 6 | 21:51.20 | 3:42.11 | 98345 | 115005 7 | 25:33.31 | 8:14.73 | 115006 | 152128 8 | 33:48.29 | 3:46.32 | 152129 | 169110 9 | 37:34.61 | 5:43.40 | 169111 | 194875
10 | 43:18.26 | 5:23.02 | 194876 | 219102
11 | 48:41.28 | 6:30.52 | 219103 | 248404
12 | 55:12.05 | 2:06.21 | 248405 | 257875

Range status and errors

Selected range Filename C:\Users\Meijin\Desktop\ALLexxess\PiL\2015 What The World Needs Now... (Mini LP SHM-CD Universal Japan 2015)\PiL - What The World Needs Now... SHM-CD.wav Peak level 100.0 %
Extraction speed 7.3 X
Range quality 100.0 %
Test CRC 8C619A23
Copy CRC 8C619A23
Copy OK

No errors occurred


AccurateRip summary

Track 1 not present in database
Track 2 not present in database
Track 3 not present in database
Track 4 not present in database
Track 5 not present in database
Track 6 not present in database
Track 7 not present in database
Track 8 not present in database
Track 9 not present in database
Track 10 not present in database
Track 11 not present in database
Track 12 not present in database

None of the tracks are present in the AccurateRip database

End of status report

- CUETools DB Plugin V2.1.6

[CTDB TOCID: _SrofpJF_lWQuOOJDlbhlFkjpA0-] found
Submit result: _SrofpJF_lWQuOOJDlbhlFkjpA0- has been confirmed
Track | CTDB Status
1 | (2/2) Accurately ripped
2 | (2/2) Accurately ripped
3 | (2/2) Accurately ripped
4 | (2/2) Accurately ripped
5 | (2/2) Accurately ripped
6 | (2/2) Accurately ripped
7 | (2/2) Accurately ripped
8 | (2/2) Accurately ripped
9 | (2/2) Accurately ripped
10 | (2/2) Accurately ripped
11 | (2/2) Accurately ripped
12 | (2/2) Accurately ripped

==== Log checksum 0A956F45C32F0DDE033E11BD44A02398BD6FE1BF69D8FAAF87E83B005106205A ====

foobar2000 1.2.9 / Dynamic Range Meter 1.1.1
log date: 2015-09-25 19:08:41

Analyzed: PiL / What The World Needs Now... SHM-CD

DR Peak RMS Duration Track

DR7 0.00 dB -8.16 dB 3:52 01-Double Trouble
DR7 0.00 dB -8.04 dB 2:46 02-Know Now
DR7 0.00 dB -8.30 dB 3:21 03-Bettie Page
DR8 0.00 dB -9.96 dB 6:08 04-C'est La Vie
DR5 0.00 dB -6.47 dB 5:44 05-Spice Of Choice
DR7 0.00 dB -7.52 dB 3:42 06-The One
DR6 0.00 dB -8.80 dB 8:15 07-Big Blue Sky
DR8 0.00 dB -9.56 dB 3:46 08-Whole Life Time
DR7 0.00 dB -8.39 dB 5:44 09-I'm Not Satisfied
DR8 0.00 dB -8.51 dB 5:23 10-Corporate
DR8 0.00 dB -8.90 dB 6:31 11-Shoom
DR9 0.00 dB -10.84 dB 2:06 12-Turkey Tits

Number of tracks: 12
Official DR value: DR7

Samplerate: 44100 Hz
Channels: 2
Bits per sample: 16
Bitrate: 874 kbps
Codec: FLAC

[CUETools log; Date: 25.09.2015 19:04:44; Version: 2.1.4]
[CTDB TOCID: _SrofpJF_lWQuOOJDlbhlFkjpA0-] found.
Track | CTDB Status
1 | (3/3) Accurately ripped
2 | (3/3) Accurately ripped
3 | (3/3) Accurately ripped
4 | (3/3) Accurately ripped
5 | (3/3) Accurately ripped
6 | (3/3) Accurately ripped
7 | (3/3) Accurately ripped
8 | (3/3) Accurately ripped
9 | (3/3) Accurately ripped
10 | (3/3) Accurately ripped
11 | (3/3) Accurately ripped
12 | (3/3) Accurately ripped
[AccurateRip ID: 0018b6ee-00ec697d-7b0d6e0c] disk not present in database.

Track Peak [ CRC32 ] [W/O NULL] [ LOG ]
-- 100,0 [8C619A23] [7B8DBBD4] CRC32
01 100,0 [95C989F7] [E22775FC]
02 100,0 [8CD0B6C4] [8B627323]
03 100,0 [15C8B538] [828B4D9A]
04 100,0 [3A7642BD] [1511A013]
05 100,0 [1E9F0239] [C6AE0B43]
06 100,0 [57A3E544] [9A1058C5]
07 100,0 [95A6E45E] [AAA0B5DD]
08 100,0 [D204B40C] [8BF146A5]
09 100,0 [0912F1AB] [8014F9DD]
10 100,0 [FB884072] [EBEA34C7]
11 100,0 [72A92933] [CF3FD40B]
12 100,0 [10AC51FE] [32D83477]

Public Image Ltd. - What the World Needs Now... (2015) [Universal Music Japan, UICY-15426]

All thanks go to ALLexxess



Download Public Image Ltd. - What the World Needs Now... (2015):

DOWNLOAD LINKS
Buy Premium From My Links To Get Resumable Support & Max Speed & To Support Me


Links are Interchangeable - No Password - Single Extraction

Direct Download

Tags: Public, Universal

Public Image Ltd. - What the World Needs Now... (2015) [Universal Music Japan, UICY-15426] Download via Hotfile Rapidshare Fileserve Megaupload & FileSonic, Public Image Ltd. - What the World Needs Now... (2015) [Universal Music Japan, UICY-15426] free torrent downloads included crack, serial, keygen.


Attention!Information

Members of Guest cannot leave comments.