Schola Cantorum Stuttgart - Atelier Schola Cantorum Vol. 2: Otte, Macchi, Bense, Bussotti, Cerha, Mireanu, Berio, Kagel (1994)

Download Now

Schola Cantorum Stuttgart - Atelier Schola Cantorum Vol. 2: Otte, Macchi, Bense, Bussotti, Cerha, Mireanu, Berio, Kagel (1994)

Schola Cantorum Stuttgart - Atelier Schola Cantorum Vol. 2: Otte, Macchi, Bense, Bussotti, Cerha, Mireanu, Berio, Kagel (1994)
Classical/Contemporary | FLAC lossless | cuesheets+log | covers+booklet | 75m55s | 338mb
Label: Cadenza \ cat. no. CAD 800892

I might be able to get all eight volumes of this series, but they will not necessarily be posted in the correct order (i.e. 1,2,3,4,etc.). Volume 1 was done before, here is vol. 2; volumes 4 & 6 are to come soon.

Tracks:

01. Hans Otte / Alpha-Omega II [0:17:23.00]
02. Egisto Macchi / Voci [0:08:18.66]
03. Max Bense / Rosenschuttplatz [0:03:21.49]
04. Sylvano Bussotti / Ancora odono i colli [0:06:53.00]
05. Sylvano Bussotti / Siciliano [0:02:00.00]
06. Friedrich Cerha / Verzeichnis [0:09:01.50]
07. Luciano Berio / Sequenza III [0:07:08.00]
08. Costin Mireanu / Nacht [0:06:40.26]
09. Mauricio Kagel / Halleluja [0:15:09.73]

Performers:

Schola Cantorum Stuttgart - Clytus Gottwald

Exact Audio Copy V1.0 beta 3 from 29. August 2011

EAC extraction logfile from 25. September 2015, 18:48

Various Artists / Atelier Schola Cantorum 2

Used drive : TSSTcorpCDDVDW SH-216AB Adapter: 0 ID: 0

Read mode : Secure
Utilize accurate stream : Yes
Defeat audio cache : Yes
Make use of C2 pointers : No

Read offset correction

: 6
Overread into Lead-In and Lead-Out : No
Fill up missing offset samples with silence : Yes
Delete leading and trailing silent blocks : No
Null samples used in CRC calculations : Yes
Used interface
: Native Win32 interface for Win NT & 2000
Gap handling
: Appended to previous track

Used output format : User Defined Encoder
Selected bitrate : 768 kBit/s
Quality : High
Add ID3 tag : No
Command line compressor : C:\Program Files (x86)\FLAC Frontend\tools\flac.exe
Additional command line options : -8 -V -T "ARTIST=%artist%" -T "TITLE=%title%" -T "ALBUM=%albumtitle%" -T "DATE=%year%" -T "TRACKNUMBER=%tracknr%" -T "GENRE=%genre%" -T "PERFORMER=%albuminterpret%" -T "COMPOSER=%composer%" %haslyrics%--tag-from-file=LYRICS="%lyricsfile%"%haslyrics% -T "ALBUMARTIST=%albumartist%" -T "DISCNUMBER=%cdnumber%" -T "TOTALDISCS=%totalcds%" -T "TOTALTRACKS=%numtracks%" -T "COMMENT=%comment%" %source% -o %dest%

TOC of the extracted CD Track | Start | Length | Start sector | End sector
--1 | 0:00.00 | 17:23.00 | 0 | 78224 2 | 17:23.00 | 8:18.50 | 78225 | 115624 3 | 25:41.50 | 3:21.37 | 115625 | 130736 4 | 29:03.12 | 6:53.00 | 130737 | 161711 5 | 35:56.12 | 2:00.00 | 161712 | 170711 6 | 37:56.12 | 9:01.38 | 170712 | 211324 7 | 46:57.50 | 7:08.00 | 211325 | 243424 8 | 54:05.50 | 6:40.20 | 243425 | 273444 9 | 60:45.70 | 15:09.55 | 273445 | 341674

Track 1 Filename H:\Users\astarte\03. POST\atelier schola cantorum 2\01 Alpha-Omega II.wav Pre-gap length 0:00:02.00 Peak level 79.1 %
Extraction speed 2.5 X
Track quality 100.0 %
Copy CRC D04B2DC3
Track not present in AccurateRip database
Copy OK

Track 2 Filename H:\Users\astarte\03. POST\atelier schola cantorum 2\02 Voci.wav Pre-gap length 0:00:04.26 Peak level 43.5 %
Extraction speed 2.8 X
Track quality 99.9 %
Copy CRC A7DE5914
Track not present in AccurateRip database
Copy OK

Track 3 Filename H:\Users\astarte\03. POST\atelier schola cantorum 2\03 Rosenschuttplatz.wav Pre-gap length 0:00:05.20 Peak level 45.5 %
Extraction speed 2.4 X
Track quality 99.9 %
Copy CRC 16907631
Track not present in AccurateRip database
Copy OK

Track 4 Filename H:\Users\astarte\03. POST\atelier schola cantorum 2\04 Ancora odono i colli.wav Pre-gap length 0:00:02.62 Peak level 65.2 %
Extraction speed 2.9 X
Track quality 99.9 %
Copy CRC 9AAB2E1E
Track not present in AccurateRip database
Copy OK

Track 5 Filename H:\Users\astarte\03. POST\atelier schola cantorum 2\05 Siciliano.wav Pre-gap length 0:00:04.93 Peak level 48.8 %
Extraction speed 2.8 X
Track quality 100.0 %
Copy CRC 759700DC
Track not present in AccurateRip database
Copy OK

Track 6 Filename H:\Users\astarte\03. POST\atelier schola cantorum 2\06 Verzeichnis.wav Pre-gap length 0:00:04.46 Peak level 64.1 %
Extraction speed 3.3 X
Track quality 99.9 %
Copy CRC 48BC7782
Track not present in AccurateRip database
Copy OK

Track 7 Filename H:\Users\astarte\03. POST\atelier schola cantorum 2\07 Sequenza III.wav Pre-gap length 0:00:02.46 Peak level 69.5 %
Extraction speed 3.8 X
Track quality 100.0 %
Copy CRC 52756337
Track not present in AccurateRip database
Copy OK

Track 8 Filename H:\Users\astarte\03. POST\atelier schola cantorum 2\08 Nacht.wav Pre-gap length 0:00:04.04 Peak level 63.0 %
Extraction speed 4.0 X
Track quality 100.0 %
Copy CRC ADF538BC
Track not present in AccurateRip database
Copy OK

Track 9 Filename H:\Users\astarte\03. POST\atelier schola cantorum 2\09 Halleluja.wav Pre-gap length 0:00:03.70 Peak level 81.6 %
Extraction speed 4.5 X
Track quality 100.0 %
Copy CRC DEDD4B3E
Track not present in AccurateRip database
Copy OK

None of the tracks are present in the AccurateRip database

No errors occurred

End of status report

==== Log checksum 5BF4C97EB0F8C2B11CA7B6AA6130BEF051C34332FAFD0616B230A210612BD64C ====
DOWNLOAD LINKS:
Buy Premium To Support Me & Get Resumable Support & Max Speed


Links are Interchangeable - No Password - Single Extraction

Direct Download

Tags: Schola, Cantorum, Stuttgart, Atelier, Schola, Cantorum, Macchi, Bussotti, Mireanu

Schola Cantorum Stuttgart - Atelier Schola Cantorum Vol. 2: Otte, Macchi, Bense, Bussotti, Cerha, Mireanu, Berio, Kagel (1994) Download via Hotfile Rapidshare Fileserve Megaupload & FileSonic, Schola Cantorum Stuttgart - Atelier Schola Cantorum Vol. 2: Otte, Macchi, Bense, Bussotti, Cerha, Mireanu, Berio, Kagel (1994) free torrent downloads included crack, serial, keygen.


Attention!Information

Members of Guest cannot leave comments.