Shiva The Destructor - Supreme Light (2015, EP)

Download Now

Shiva The Destructor - Supreme Light (2015, EP)

Shiva The Destructor - Supreme Light (2015, EP)
EAC Rip | FLAC, IMG+CUE+LOG | 200 MB | MP3 CBR 320 Kbps | 80 MB | Complete HQ Scans | PNG -> 20 MB
Heavy Psychedelic/Stoner Rock | Label: Selfreleased, n/a | RAR 3% Rec. | Nitroflare.com

Tracklist :

1. Glances - 7:00
2. 420=42 - 9:56
3. Supreme Light - 10:26

Exact Audio Copy V1.1 from 23. June 2015

EAC extraction logfile from 26. September 2015, 20:26

Shiva The Destructor / Supreme Light EP

Used drive : PIONEER DVD-RW DVR-219L Adapter: 1 ID: 1

Read mode : Secure
Utilize accurate stream : Yes
Defeat audio cache : Yes
Make use of C2 pointers : No

Read offset correction

: 6
Overread into Lead-In and Lead-Out : No
Fill up missing offset samples with silence : Yes
Delete leading and trailing silent blocks : No
Null samples used in CRC calculations : Yes
Used interface
: Native Win32 interface for Win NT & 2000

Used output format : Internal WAV Routines
Sample format : 44.100 Hz; 16 Bit; Stereo

TOC of the extracted CD Track | Start | Length | Start sector | End sector
--1 | 0:00.00 | 6:59.72 | 0 | 31496 2 | 6:59.72 | 9:55.40 | 31497 | 76161 3 | 16:55.37 | 10:26.06 | 76162 | 123117

Range status and errors

Selected range Filename D:\.avxhome.se\Shiva The Destructor - Supreme Light EP.wav Peak level 96.3 %
Extraction speed 6.6 X
Range quality 100.0 %
Test CRC FD94CE39
Copy CRC FD94CE39
Copy OK

No errors occurred


AccurateRip summary

Track 1 not present in database
Track 2 not present in database
Track 3 not present in database

None of the tracks are present in the AccurateRip database

End of status report

- CUETools DB Plugin V2.1.6

[CTDB TOCID: PpQxXpKwd9lOMs6J8JG2f_nxnSc-] disk not present in database
Submit result: PpQxXpKwd9lOMs6J8JG2f_nxnSc- has been uploaded

==== Log checksum E3B19E3DEBD16DCED931E19412C5E7AFBA782A5E8B44EBDECDF233016D1D953F ====

* Andrew Pryimak - guitars, vocals, backing vocals
* Rodion Tsikra - guitars
* Andrew Sernyak - bass, vocals
* Marco Sharyi - drums

Drums recorded at Concrete Foundation Studio
Bass and guitars recorded at Evergreen Studio
Vocals recorded at SoundPlant Studio
Mixed (and huge restraint demonstrated) by Vyacheslav Khabarov (Concrete Foundation Studio)
Artwork by Oksana Zinkovska

We are grateful to all Robustfellow guys, especially Phil, and our great friends from Bomg, Soom and Ethereal Riffian for supporting us.
DOWNLOAD LINKS:
Buy Premium To Support Me & Get Resumable Support & Max Speed


Links are Interchangeable - No Password - Single Extraction

Direct Download

Tags: Destructor, Supreme

Shiva The Destructor - Supreme Light (2015, EP) Download via Hotfile Rapidshare Fileserve Megaupload & FileSonic, Shiva The Destructor - Supreme Light (2015, EP) free torrent downloads included crack, serial, keygen.


Attention!Information

Members of Guest cannot leave comments.