California Guitar Trio - Rocks The West (2000)

Download Now

California Guitar Trio - Rocks The West (2000)

California Guitar Trio - Rocks The West (2000)
EAC | Flac(Image) + Cue + Log & MP3 CBR 320Kbps
Discipline Global Mobile, DGM0003 | ~ 345 or 123 Mb | Scans(600dpi, jpg) -> 81 Mb
Progressive Rock / New Acoustic

"CGT is an amazing trio of innovative guitar players that come from or are inspired by the Robert Fripp school of guitarrist. These live interpretations stand as a great overview of both their work and the ability to transform different styles and other's work into the trio's musical style..."


Tracklist:

01. Scramble 2:22
02. Symphony No.9 8:58
03. Bohemian Rhapsody 5:46
04. Caravan 3:34
05. Punta Patri 4:20
06. Waters Of Eden 4:28
07. Blue-Eyed Monkey 2:00
08. Pathways 4:59
09. Pictures At An Exhibition 3:59
10. Happy Time In Fun Town 3:16
11. Misirlou 2:04
12. Rokudan 1:51
13. Blockhead 4:39

Exact Audio Copy V1.1 from 23. June 2015

EAC extraction logfile from 25. September 2015, 22:49

California Guitar Trio / Rocks The West (DGM0003)

Used drive : PLEXTOR DVDR PX-891SA Adapter: 1 ID: 0

Read mode : Secure
Utilize accurate stream : Yes
Defeat audio cache : Yes
Make use of C2 pointers : No

Read offset correction

: 6
Overread into Lead-In and Lead-Out : No
Fill up missing offset samples with silence : Yes
Delete leading and trailing silent blocks : No
Null samples used in CRC calculations : Yes
Used interface
: Native Win32 interface for Win NT & 2000

Used output format : User Defined Encoder
Selected bitrate : 1024 kBit/s
Quality : High
Add ID3 tag : No
Command line compressor : C:\Program Files\Exact Audio Copy\Flac\flac.exe
Additional command line options : -V -8 -T "Genre=%genre%" -T "Artist=%artist%" -T "Title=%title%" -T "Album=%albumtitle%" -T "Date=%year%" -T "Tracknumber=%tracknr%" -T "Comment=%comment%" %source%

TOC of the extracted CD Track | Start | Length | Start sector | End sector
--1 | 0:00.00 | 2:22.10 | 0 | 10659 2 | 2:22.10 | 8:58.02 | 10660 | 51011 3 | 11:20.12 | 5:46.05 | 51012 | 76966 4 | 17:06.17 | 3:34.30 | 76967 | 93046 5 | 20:40.47 | 4:19.61 | 93047 | 112532 6 | 25:00.33 | 4:27.67 | 112533 | 132624 7 | 29:28.25 | 1:59.71 | 132625 | 141620 8 | 31:28.21 | 4:58.65 | 141621 | 164035 9 | 36:27.11 | 3:59.31 | 164036 | 181991
10 | 40:26.42 | 3:16.11 | 181992 | 196702
11 | 43:42.53 | 2:04.21 | 196703 | 206023
12 | 45:46.74 | 1:50.38 | 206024 | 214311
13 | 47:37.37 | 4:38.40 | 214312 | 235201

Range status and errors

Selected range Filename H:\dafnaplus\California Guitar Trio\2000 Rocks The West\California Guitar Trio - Rocks The West (DGM0003).wav Peak level 100.0 %
Extraction speed 8.2 X
Range quality 100.0 %
Test CRC ADE84261
Copy CRC ADE84261
Copy OK

No errors occurred


AccurateRip summary

Track 1 accurately ripped (confidence 2) [31311927] (AR v2)
Track 2 accurately ripped (confidence 2) [64653A6F] (AR v2)
Track 3 accurately ripped (confidence 2) [CF01B23A] (AR v2)
Track 4 accurately ripped (confidence 2) [DAD29F48] (AR v2)
Track 5 accurately ripped (confidence 2) [6CC8B0A0] (AR v2)
Track 6 accurately ripped (confidence 2) [A18F9210] (AR v2)
Track 7 accurately ripped (confidence 2) [9F195E1C] (AR v2)
Track 8 accurately ripped (confidence 2) [EECD2D6A] (AR v2)
Track 9 accurately ripped (confidence 2) [43D3860E] (AR v2)
Track 10 accurately ripped (confidence 2) [24DFDC3F] (AR v2)
Track 11 accurately ripped (confidence 2) [83BEB447] (AR v2)
Track 12 accurately ripped (confidence 2) [01125DC1] (AR v2)
Track 13 accurately ripped (confidence 2) [12E195AA] (AR v2)

All tracks accurately ripped

End of status report

- CUETools DB Plugin V2.1.6

[CTDB TOCID: ZkmFe8jInFFKJM8m77egEfiDHRI-] found
Submit result: ZkmFe8jInFFKJM8m77egEfiDHRI- has been confirmed
Track | CTDB Status
1 | (16/16) Accurately ripped
2 | (16/16) Accurately ripped
3 | (16/16) Accurately ripped
4 | (16/16) Accurately ripped
5 | (16/16) Accurately ripped
6 | (16/16) Accurately ripped
7 | (16/16) Accurately ripped
8 | (16/16) Accurately ripped
9 | (16/16) Accurately ripped
10 | (16/16) Accurately ripped
11 | (16/16) Accurately ripped
12 | (16/16) Accurately ripped
13 | (16/16) Accurately ripped

==== Log checksum 206128109C821A194C1A8DDAA09D88910DC4E95AC3C29317D096C194711C9BED ====

foobar2000 1.2.9 / Dynamic Range Meter 1.1.1
log date: 2015-09-26 20:23:14

Analyzed: California Guitar Trio / Rocks The West (DGM0003)

DR Peak RMS Duration Track

DR6 -0.41 dB -8.77 dB 2:22 01-Scramble
DR9 0.00 dB -12.39 dB 8:58 02-Symphony No. 9
DR9 -0.29 dB -13.37 dB 5:46 03-Bohemian Rhapsody
DR8 0.00 dB -10.95 dB 3:34 04-Caravan
DR8 0.00 dB -12.01 dB 4:20 05-Punta Patri
DR10 -1.68 dB -15.05 dB 4:28 06-Waters Of Eden
DR10 -1.03 dB -16.40 dB 2:00 07-Blue-Eyed Monkey
DR7 0.00 dB -11.05 dB 4:59 08-Pathways
DR8 0.00 dB -10.76 dB 3:59 09-Pictures At An Exhibition
DR8 -0.50 dB -11.93 dB 3:16 10-Happy Time In Fun Town
DR6 -0.31 dB -7.80 dB 2:04 11-Misirlou
DR14 -5.57 dB -23.40 dB 1:51 12-Rokudan
DR6 0.00 dB -8.83 dB 4:39 13-Blockhead

Number of tracks: 13
Official DR value: DR9

Samplerate: 44100 Hz
Channels: 2
Bits per sample: 16
Bitrate: 897 kbps
Codec: FLAC

[CUETools log; Date: 26.09.2015 20:16:59; Version: 2.1.4]
[CTDB TOCID: ZkmFe8jInFFKJM8m77egEfiDHRI-] found.
Track | CTDB Status
1 | (17/17) Accurately ripped
2 | (17/17) Accurately ripped
3 | (17/17) Accurately ripped
4 | (17/17) Accurately ripped
5 | (17/17) Accurately ripped
6 | (17/17) Accurately ripped
7 | (17/17) Accurately ripped
8 | (17/17) Accurately ripped
9 | (17/17) Accurately ripped
10 | (17/17) Accurately ripped
11 | (17/17) Accurately ripped
12 | (17/17) Accurately ripped
13 | (17/17) Accurately ripped
[AccurateRip ID: 001bb89e-010e01ae-b70c400d] found.
Track [ CRC | V2 ] Status
01 [e14fbfef|31311927] (00+02/42) Accurately ripped
02 [15bee447|64653a6f] (00+02/41) Accurately ripped
03 [38e5092a|cf01b23a] (00+02/42) Accurately ripped
04 [254af066|dad29f48] (00+02/42) Accurately ripped
05 [18180c9b|6cc8b0a0] (00+02/42) Accurately ripped
06 [8af9e134|a18f9210] (00+02/42) Accurately ripped
07 [fc2c1e0d|9f195e1c] (00+02/41) Accurately ripped
08 [f4b0f85a|eecd2d6a] (00+02/40) Accurately ripped
09 [8c380ce3|43d3860e] (00+02/39) Accurately ripped
10 [d44b5274|24dfdc3f] (00+02/41) Accurately ripped
11 [79d8f1dc|83beb447] (00+02/41) Accurately ripped
12 [2278c5d2|01125dc1] (00+02/41) Accurately ripped
13 [db02134c|12e195aa] (00+02/38) Accurately ripped
Offsetted by 18:
01 [9db8214f] (16/42) Accurately ripped
02 [c98c0fa4] (16/41) Accurately ripped
03 [553b075c] (16/42) Accurately ripped
04 [26fcad7d] (16/42) Accurately ripped
05 [3f28a923] (16/42) Accurately ripped
06 [6528e0a1] (17/42) Accurately ripped
07 [71f067e6] (16/41) Accurately ripped
08 [e92adcbc] (16/40) Accurately ripped
09 [23dd4050] (14/39) Accurately ripped
10 [f00c8fc2] (16/41) Accurately ripped
11 [0d0b4a42] (16/41) Accurately ripped
12 [3d8d4f67] (16/41) Accurately ripped
13 [3e4c267e] (15/38) Accurately ripped
Offsetted by -641:
01 [5b6222ae] (00/42) No match (V2 was not tested)
02 [28109384] (00/41) No match (V2 was not tested)
03 [5b45e581] (00/42) No match (V2 was not tested)
04 [f8d90100] (00/42) No match (V2 was not tested)
05 [95d7a1f6] (00/42) No match (V2 was not tested)
06 [3c36c4d6] (00/42) No match (V2 was not tested)
07 [7b9b62bf] (00/41) No match (V2 was not tested)
08 0713ae7 (00/40) No match (V2 was not tested)
09 [cc0bbbdc] (00/39) No match (V2 was not tested)
10 [e4f654df] (00/41) No match (V2 was not tested)
11 [1ef328c9] (00/41) No match (V2 was not tested)
12 [27615ef8] (00/41) No match (V2 was not tested)
13 [75bde127] (00/38) No match (V2 was not tested)
Offsetted by 415:
01 [311cb30c] (02/42) Accurately ripped
02 [2b400403] (02/41) Accurately ripped
03 [0cc72046] (02/42) Accurately ripped
04 [780f54fc] (02/42) Accurately ripped
05 [391120fe] (02/42) Accurately ripped
06 [a09b4f42] (02/42) Accurately ripped
07 [12585417] (02/41) Accurately ripped
08 [a4b44048] (02/40) Accurately ripped
09 [538b9edd] (02/39) Accurately ripped
10 [f62c1c82] (02/41) Accurately ripped
11 [3efea3cd] (02/41) Accurately ripped
12 [0c73dffb] (02/41) Accurately ripped
13 ffdee19 (00/38) No match (V2 was not tested)

Track Peak [ CRC32 ] [W/O NULL] [ LOG ]
-- 100,0 [ADE84261] 71E9171 CRC32
01 95,4 [3D4AF5FE] [19189417]
02 100,0 [7AF421CA] [3953368A]
03 96,6 [9F041193] [ECDEEBC7]
04 100,0 [A14B12C3] [8016DBFF]
05 100,0 [17E39172] [E23C94AC]
06 82,4 36AC0F5 [32BAF2EA]
07 88,7 [082C0C68] [DC19DAD1]
08 100,0 [57DF36AA] [94056C11]
09 100,0 [F8FF0E75] [E5DDF792]
10 94,4 [F4E8276C] [864B4379]
11 96,5 [73734C80] [48E668D7]
12 52,6 [30061278] [3B151405]
13 100,0 [0694C405] [93279E10]

California Guitar Trio - Rocks The West (2000)

DOWNLOAD LINKS:
Buy Premium To Support Me & Get Resumable Support & Max Speed


Links are Interchangeable - No Password - Single Extraction

Direct Download

Tags: California, Guitar

California Guitar Trio - Rocks The West (2000) Download via Hotfile Rapidshare Fileserve Megaupload & FileSonic, California Guitar Trio - Rocks The West (2000) free torrent downloads included crack, serial, keygen.


Attention!Information

Members of Guest cannot leave comments.