Betty Wright - Sevens (1986)

Download Now

Betty Wright - Sevens (1986)

Betty Wright - Sevens (1986)
R&B, Soul, Quiet Storm, Electronic | EAC Rip | FLAC, Img+CUE + LOG + Full Artwork-600dpi (JPEG) | 43:11 Min | 304,32 Mb
Label: First String Records / Fantasy, Inc. (USA) | Released: 1986

"
Bessie Regina Norris, better known by her stage name, Betty Wright (born December 21, 1953), is a Miami-based soul and R&B singer-songwriter, who won fame in the 1970s with hits such as "Clean Up Woman" and "Tonight is the Night". Her tenth studio album, called "Sevens", released on the First String Records label in 1986, considered by many critics to be one of the best soul albums released in the 80s. Most of the songs on the album the singer has written herself.
"

Betty Wright - Sevens (1986)

Betty Wright - Sevens (1986)


Release of the album: 1986 [LP First String Records, Cat.# F-9644, USA]
Release of this CD: 1986 [CD First String Records (USA), Cat.# FCD-699-9644 / UPC: 02521896442]
в„— & В© 1986 Fantasy, Inc.
Distributed by Fantasy, Inc.
A Ms. B. Production


Produced by: Marsha Radcliffe and Betty Wright
except * produced by Noel Williams, Marsha Radcliffe & Betty Wright
Executive producers: Glen Rolle, Joycelin Norris, Noel Williams

Photography By - Phil Bray


Tracklist:

01. I Can (04:08)
(Wright / Hunt)
02. In Time You'll See (05:43)
(Wright)
*03. Tropical Island (04:19)
(Williams / Caldwell / Wright)
04. The Sun Don't Shine (05:39)
(Wright)
05. Share My Love (03:43)
(Wright / Hairston / Fort)
*06. Music Street (03:50)
(Williams / Wright)
07. Are You Gonna Stand By Me (Or Fall For Her)? (04:38)
(Wright / Mendes)
08. Pain (06:59)
(Wright)
09. Hang On (Bonus Track for CD) (04:12)
(Williams / Caldwell)

Exact Audio Copy V1.0 beta 3 from 29. August 2011

EAC extraction logfile from 16. April 2013, 23:23

Betty Wright / Sevens

Used drive : ATAPI DVD DW 8X16X8X16 Adapter: 0 ID: 2

Read mode : Secure
Utilize accurate stream : Yes
Defeat audio cache : Yes
Make use of C2 pointers : No

Read offset correction

: 618
Overread into Lead-In and Lead-Out : No
Fill up missing offset samples with silence : Yes
Delete leading and trailing silent blocks : No
Null samples used in CRC calculations : Yes
Used interface
: Native Win32 interface for Win NT & 2000

Used output format : Internal WAV Routines
Sample format : 44.100 Hz; 16 Bit; Stereo

TOC of the extracted CD Track | Start | Length | Start sector | End sector
--1 | 0:00.00 | 4:08.72 | 0 | 18671 2 | 4:08.72 | 5:43.15 | 18672 | 44411 3 | 9:52.12 | 4:19.28 | 44412 | 63864 4 | 14:11.40 | 5:39.52 | 63865 | 89341 5 | 19:51.17 | 3:43.73 | 89342 | 106139 6 | 23:35.15 | 3:50.42 | 106140 | 123431 7 | 27:25.57 | 4:38.60 | 123432 | 144341 8 | 32:04.42 | 6:59.60 | 144342 | 175826 9 | 39:04.27 | 4:12.23 | 175827 | 194749

Range status and errors

Selected range Filename C:\BlondStyle\Betty Wright - Sevens.wav Peak level 74.9 %
Extraction speed 8.5 X
Range quality 100.0 %
Test CRC 8BC0320C
Copy CRC 8BC0320C
Copy OK

No errors occurred


AccurateRip summary

Track 1 accurately ripped (confidence 2) [54A64E51] (AR v1)
Track 2 accurately ripped (confidence 2) [5765CFD1] (AR v1)
Track 3 accurately ripped (confidence 2) [9F81C439] (AR v1)
Track 4 accurately ripped (confidence 2) [03E1FB3C] (AR v1)
Track 5 accurately ripped (confidence 2) [D319B40C] (AR v1)
Track 6 accurately ripped (confidence 2) [21E8AC89] (AR v1)
Track 7 accurately ripped (confidence 2) [C15116E0] (AR v1)
Track 8 accurately ripped (confidence 2) [2536D414] (AR v1)
Track 9 accurately ripped (confidence 2) [A0EF7D6D] (AR v1)

All tracks accurately ripped

End of status report

==== Log checksum 7EFA35A609E0B1414D78E4EA01E1D60FEDB6738EE700A9B79BDB0EC1426A7550 ====

foobar2000 1.3.7 / Dynamic Range Meter 1.1.1
log date: 2015-09-27 22:26:30

Analyzed: Betty Wright / Sevens

DR Peak RMS Duration Track

DR13 -2.50 dB -18.22 dB 4:09 01-I Can
DR12 -3.63 dB -17.75 dB 5:43 02-In Time You'll See
DR12 -3.20 dB -16.62 dB 4:19 03-Tropical Island
DR12 -2.90 dB -17.50 dB 5:40 04-The Sun Don't Shine
DR12 -4.12 dB -18.06 dB 3:44 05-Share My Love
DR12 -3.47 dB -17.10 dB 3:51 06-Music Street
DR13 -2.72 dB -17.82 dB 4:39 07-Are You Gonna Stand By Me (Or Fall For Her)?
DR11 -3.48 dB -16.17 dB 7:00 08-Pain
DR12 -3.16 dB -16.97 dB 4:12 09-Hang On (Bonus Track for CD)

Number of tracks: 9
Official DR value: DR12

Samplerate: 44100 Hz
Channels: 2
Bits per sample: 16
Bitrate: 830 kbps
Codec: FLAC



password: BlondStyle


DOWNLOAD:
Buy Premium From My Links To Get Resumable Support & Max Speed & To Support Me


Links are Interchangeable - No Password

Direct Download

Tags: Wright, Sevens

Betty Wright - Sevens (1986) Download via Hotfile Rapidshare Fileserve Megaupload & FileSonic, Betty Wright - Sevens (1986) free torrent downloads included crack, serial, keygen.


Attention!Information

Members of Guest cannot leave comments.