Various Artists - Japan: Zen Hôyô - Liturgy of Zen Buddhism (2010)

Download Now

Various Artists - Japan: Zen Hôyô - Liturgy of Zen Buddhism (2010)

Various Artists - Japan: Zen Hôyô - Liturgy of Zen Buddhism (2010)
World/Ethnic | FLAC lossless | cuesheets+log | covers+booklet | 63m16s | 204mb
Label: Ocora | cat. no. C 560231

"This CD is a live recording of a monastic service of the Rinzai sect of Zen Buddhism celebrated on April 22nd, 2008 in the Shinju-an chapel of the Daitokuji Temple in Kyoto, during a commemoration for universal peace and for predecessors of the order now deceased, including the monk Ikkyu, the founder of this chapel and the 48th Reverend monk of the temple from 1474-81. The celebration, constituting twelve sequences performed without interruption, is structured by the alternation of instrumental passages with the recitation of sutras and prayers. Apart from instruments traditionally used in the cult, like a large and small bell, a dora (small gong) and a wood block, lithophones (sanukite) have been added. The latter, discovered by the geologist Hitoshi Maeda in the 1980s on the island of Shikoku, are made from the resonant stone of volcanic rock. Sanukite were ameliorated in the 1990s by the percussionist Stomu Yamash'ta, who modernised them with micro-contact and reverberation, and developed new instrumental techniques for them. The restoration of these ancient instruments thanks to the initiative of Stomu Yamash'ta leads the participants into a new sound world corresponding to the universe of sanyata (vacuity) in the spirit of Zen Buddhism."


Tracks:

01. Introduction instrumentale [0:12:40.40]
02. Récitation du Daihisshinjû [0:07:35.22]
03. Prière [0:02:32.76]
04. Intermède instrumental [0:02:15.12]
05. Récitation du Daihisshinjû [0:05:14.92]
06. Prière [0:02:13.78]
07. Intermède instrumental [0:06:21.32]
08. Récitation du Myôhô-rengekyô [0:06:53.02]
09. Prière [0:04:28.10]
10. Intermède instrumental [0:05:01.93]
11. Récitation de préceptes [0:03:17.16]
12. Postlude instrumental [0:04:42.49]

Performers:

Monks of the Rinsai school of Zen
Stomu Yamash'ta - percussion

Exact Audio Copy V1.0 beta 3 from 29. August 2011

EAC extraction logfile from 6. August 2015, 21:37

Stomu Yamash'ta / Zen Hôyô

Used drive : TSSTcorpCDDVDW SH-216AB Adapter: 0 ID: 0

Read mode : Secure
Utilize accurate stream : Yes
Defeat audio cache : Yes
Make use of C2 pointers : No

Read offset correction

: 6
Overread into Lead-In and Lead-Out : No
Fill up missing offset samples with silence : Yes
Delete leading and trailing silent blocks : No
Null samples used in CRC calculations : Yes
Used interface
: Native Win32 interface for Win NT & 2000

Used output format : User Defined Encoder
Selected bitrate : 768 kBit/s
Quality : High
Add ID3 tag : No
Command line compressor : C:\Program Files (x86)\FLAC Frontend\tools\flac.exe
Additional command line options : -8 -V -T "ARTIST=%artist%" -T "TITLE=%title%" -T "ALBUM=%albumtitle%" -T "DATE=%year%" -T "TRACKNUMBER=%tracknr%" -T "GENRE=%genre%" -T "PERFORMER=%albuminterpret%" -T "COMPOSER=%composer%" %haslyrics%--tag-from-file=LYRICS="%lyricsfile%"%haslyrics% -T "ALBUMARTIST=%albumartist%" -T "DISCNUMBER=%cdnumber%" -T "TOTALDISCS=%totalcds%" -T "TOTALTRACKS=%numtracks%" -T "COMMENT=%comment%" %source% -o %dest%

TOC of the extracted CD Track | Start | Length | Start sector | End sector
--1 | 0:00.00 | 12:40.30 | 0 | 57029 2 | 12:40.30 | 7:35.17 | 57030 | 91171 3 | 20:15.47 | 2:32.57 | 91172 | 102628 4 | 22:48.29 | 2:15.09 | 102629 | 112762 5 | 25:03.38 | 5:14.69 | 112763 | 136381 6 | 30:18.32 | 2:13.59 | 136382 | 146415 7 | 32:32.16 | 6:21.24 | 146416 | 175014 8 | 38:53.40 | 6:53.02 | 175015 | 205991 9 | 45:46.42 | 4:28.08 | 205992 | 226099
10 | 50:14.50 | 5:01.70 | 226100 | 248744
11 | 55:16.45 | 3:17.12 | 248745 | 263531
12 | 58:33.57 | 4:42.37 | 263532 | 284718

Range status and errors

Selected range Filename C:\Users\Astarte\Music\ALTERNATIVE\zen\Stomu Yamash'ta - Zen Hôyô.wav Peak level 90.8 %
Extraction speed 7.3 X
Range quality 99.9 %
Copy CRC B01CD800
Copy OK

No errors occurred


AccurateRip summary

Track 1 accurately ripped (confidence 5) [10062FE4] (AR v2)
Track 2 accurately ripped (confidence 5) [E27BA98B] (AR v2)
Track 3 accurately ripped (confidence 5) [52477489] (AR v2)
Track 4 accurately ripped (confidence 5) [2684F78F] (AR v2)
Track 5 accurately ripped (confidence 5) 3B1AB71 (AR v2)
Track 6 accurately ripped (confidence 5) [2CD10FBF] (AR v2)
Track 7 accurately ripped (confidence 5) [ACFEDE5A] (AR v2)
Track 8 accurately ripped (confidence 5) [485E9682] (AR v2)
Track 9 accurately ripped (confidence 5) [64A4CD57] (AR v2)
Track 10 accurately ripped (confidence 4) [48B72A4F] (AR v2)
Track 11 accurately ripped (confidence 4) [31874E7B] (AR v2)
Track 12 accurately ripped (confidence 4) [D19A8ED9] (AR v2)

All tracks accurately ripped

End of status report

==== Log checksum 505FEDD6A666E7A320C07AF6DC77833B57999B857B42FDF872BA804A7282680D ====
DOWNLOAD:
Buy Premium To Support Me & Get Resumable Support & Max Speed


Links are Interchangeable - No Password

Direct Download

Tags: Various, Artists, Liturgy, Buddhism

Various Artists - Japan: Zen Hôyô - Liturgy of Zen Buddhism (2010) Download via Hotfile Rapidshare Fileserve Megaupload & FileSonic, Various Artists - Japan: Zen Hôyô - Liturgy of Zen Buddhism (2010) free torrent downloads included crack, serial, keygen.


Attention!Information

Members of Guest cannot leave comments.