DarkTribe - The Modern Age (2015)

Download Now

DarkTribe - The Modern Age (2015)

DarkTribe - The Modern Age (2015)
EAC | Flac(Image) + Cue + Log & MP3 CBR 320Kbps
Scarlet Records, SC 283-2 | ~ 379 or 118 Mb | Scans(600dpi, jpg) -> 43 Mb
Power Metal

"While passable, The Modern Age fits so many stereotypes it actually hurts. However, this record is intended for those who enjoy high fructose syrupy sounds, regardless of how bad they are for one's health. If you fit that description, this is an album you should hear..."

DarkTribe - The Modern Age (2015)

DarkTribe - The Modern Age (2015):

DarkTribe - The Modern Age (2015)

Tracklist:

01. Humanizer
02. Red House of Sorrow
03. My Last Odyssey
04. The Modern Age
05. A Last Will
06. No Train to Earth
07. Holy Water Day
08. Wild Call
09. Rainwar
10. Anthem for a Planet
11. Darkside of Imagination

Musicians:

Anthony Agnello - Vocals
Bruno Caprani - Bass
Julien Agnello - Drums
Loïc Manuello - Guitars


Exact Audio Copy V1.1 from 23. June 2015

EAC extraction logfile from 26. September 2015, 11:18

DarkTribe / The Modern Age

Used drive : ATAPI iHAS122 W Adapter: 2 ID: 0

Read mode : Secure
Utilize accurate stream : Yes
Defeat audio cache : Yes
Make use of C2 pointers : No

Read offset correction

: 48
Overread into Lead-In and Lead-Out : No
Fill up missing offset samples with silence : Yes
Delete leading and trailing silent blocks : No
Null samples used in CRC calculations : Yes
Used interface
: Installed external ASPI interface

Used output format : User Defined Encoder
Selected bitrate : 1024 kBit/s
Quality : High
Add ID3 tag : No
Command line compressor : C:\Program Files\FLAC\flac.exe
Additional command line options : -V -8 -T "Date=%year%" -T "Genre=%genre%" -T"COMMENT=Ripped by Ilijan" -8 -V %source%

TOC of the extracted CD Track | Start | Length | Start sector | End sector
--1 | 0:00.00 | 1:09.69 | 0 | 5243 2 | 1:09.69 | 4:46.48 | 5244 | 26741 3 | 5:56.42 | 4:26.42 | 26742 | 46733 4 | 10:23.09 | 4:56.22 | 46734 | 68955 5 | 15:19.31 | 5:28.68 | 68956 | 93623 6 | 20:48.24 | 4:07.55 | 93624 | 112203 7 | 24:56.04 | 3:08.52 | 112204 | 126355 8 | 28:04.56 | 6:02.27 | 126356 | 153532 9 | 34:07.08 | 6:15.07 | 153533 | 181664
10 | 40:22.15 | 4:33.26 | 181665 | 202165
11 | 44:55.41 | 5:13.74 | 202166 | 225714

Range status and errors

Selected range Filename D:\ИЛИЯН\DarkTribe - The Modern Age.wav Peak level 98.8 %
Extraction speed 3.8 X
Range quality 100.0 %
Test CRC 157C269A
Copy CRC 157C269A
Copy OK

No errors occurred


AccurateRip summary

Track 1 not present in database
Track 2 not present in database
Track 3 not present in database
Track 4 not present in database
Track 5 not present in database
Track 6 not present in database
Track 7 not present in database
Track 8 not present in database
Track 9 not present in database
Track 10 not present in database
Track 11 not present in database

None of the tracks are present in the AccurateRip database

End of status report

- CUETools DB Plugin V2.1.6

[CTDB TOCID: OfjiBB.tbocAGIMCgXBH5X2m.yY-] found
Submit result: OfjiBB.tbocAGIMCgXBH5X2m.yY- has been confirmed
Track | CTDB Status
1 | (1/1) Accurately ripped
2 | (1/1) Accurately ripped
3 | (1/1) Accurately ripped
4 | (1/1) Accurately ripped
5 | (1/1) Accurately ripped
6 | (1/1) Accurately ripped
7 | (1/1) Accurately ripped
8 | (1/1) Accurately ripped
9 | (1/1) Accurately ripped
10 | (1/1) Accurately ripped
11 | (1/1) Accurately ripped

==== Log checksum 93EC5BE4AB3629CB7A446BA3547E7873513B79DE8756E3BCEEA48BDD3D10AAC9 ====

foobar2000 1.2.9 / Dynamic Range Meter 1.1.1
log date: 2015-09-26 19:37:52

Analyzed: DarkTribe / The Modern Age

DR Peak RMS Duration Track

DR6 -0.10 dB -8.81 dB 1:10 01-Humanizer
DR6 -0.10 dB -6.19 dB 4:47 02-Red House of Sorrow
DR5 -0.10 dB -6.18 dB 4:27 03-My Last Odyssey
DR5 -0.10 dB -6.28 dB 4:56 04-The Modern Age
DR6 -0.10 dB -7.11 dB 5:29 05-A Last Will
DR6 -0.10 dB -6.38 dB 4:08 06-No Train to Earth
DR9 -0.69 dB -11.11 dB 3:09 07-Holy Water Day
DR6 -0.10 dB -6.80 dB 6:02 08-Wild Call
DR6 -0.10 dB -6.42 dB 6:15 09-Rainwar
DR6 -0.10 dB -6.28 dB 4:33 10-Anthem for a Planet
DR6 -0.10 dB -6.92 dB 5:14 11-Darkside of Imagination

Number of tracks: 11
Official DR value: DR6

Samplerate: 44100 Hz
Channels: 2
Bits per sample: 16
Bitrate: 1026 kbps
Codec: FLAC

[CUETools log; Date: 27.09.2015 9:33:48; Version: 2.1.4]
[CTDB TOCID: OfjiBB.tbocAGIMCgXBH5X2m.yY-] found.
Track | CTDB Status
1 | (2/2) Accurately ripped
2 | (2/2) Accurately ripped
3 | (2/2) Accurately ripped
4 | (2/2) Accurately ripped
5 | (2/2) Accurately ripped
6 | (2/2) Accurately ripped
7 | (2/2) Accurately ripped
8 | (2/2) Accurately ripped
9 | (2/2) Accurately ripped
10 | (2/2) Accurately ripped
11 | (2/2) Accurately ripped
[AccurateRip ID: 0012f73b-00a98b88-990bc10b] disk not present in database.

Track Peak [ CRC32 ] [W/O NULL] [ LOG ]
-- 98,8 [157C269A] [68BA1A4C] CRC32
01 98,8 [D987FF2A] F6C1896
02 98,8 [A9D9017D] [A66C7A61]
03 98,8 [A4E0297A] [16C3D6A2]
04 98,8 [96509BB3] [96999CA4]
05 98,8 [CEF7839F] [AD85F97F]
06 98,8 [8C9BC925] [225CB222]
07 92,3 [F1B1C42B] [995916C4]
08 98,8 [4AE8B3DE] [7C853CBE]
09 98,8 [E09AACEF] [55950904]
10 98,8 [9B1DE374] [8E589025]
11 98,8 [6982CBC3] [63F25AF1]

DarkTribe - The Modern Age (2015)

All thanks go to ИЛИЯH

Download DarkTribe - The Modern Age (2015):

Download Links:
(Premium Recommended)


All above links are interchangable. No password

Direct Download

Tags: DarkTribe, Modern

DarkTribe - The Modern Age (2015) Download via Hotfile Rapidshare Fileserve Megaupload & FileSonic, DarkTribe - The Modern Age (2015) free torrent downloads included crack, serial, keygen.


Attention!Information

Members of Guest cannot leave comments.