Badger - One Live Badger (1973) [1993, Reissue]

Download Now

Badger - One Live Badger (1973) [1993, Reissue]

Badger - One Live Badger (1973)
EAC Rip | FLAC (Img) + Cue + Log ~ 316 Mb | MP3 CBR320 ~ 121 Mb
Scans Included (JPG, 600 dpi) | RAR 5% Recovery
Progressive Rock, Hard Rock | Repertoire Records #REP 4373-WY

"Badger was a British rock band from the early 1970s. The band was co-founded by keyboardist Tony Kaye after he left Yes, with David Foster. Foster had been in The Warriors with Jon Anderson before Anderson co-founded Yes. Foster later worked with the band on Time and a Word. Kaye had worked on a solo project by Foster that was never released. The pair found drummer Roy Dyke, formerly of Ashton, Gardner & Dyke, and Dyke suggested Brian Parrish formerly of Parrish & Gurvitz which later became Frampton's Camel (after Parrish left P&G) on guitar. The new band began rehearsing in September 1972 and signed to Atlantic Records. Badger's first release was the live album, One Live Badger, co-produced by Jon Anderson and Geoffrey Haslam, and was taken from a show opening for Yes at London's Rainbow Theatre..."

Badger's first release was the live album, One Live Badger, co-produced by Jon Anderson and Geoffrey Haslam, and was taken from a show opening for Yes at London's Rainbow Theatre. In the progressive rock genre, five of the songs were co-written by the whole band, with a sixth by Parrish (initially written for Parrish & Gurvitz). The cover art was done by Roger Dean, the artist responsible for many of Yes's album covers, although Kaye left Yes before their partnership with Roger Dean.

By 1974, the band had been reduced to Kaye and Dyke. They recruited bassist, Kim Gardner, who had worked with Dyke in Ashton, Gardner & Dyke. Paul Pilnick, formerly of Stealers Wheel, joined on guitar, as did singer Jackie Lomax. Lomax proceeded to turn them into the type of R&B/soul band he had used on his solo albums. The band became a vehicle for Lomax's songs and singing. During this period, they released one LP, White Lady, on Epic Records, produced by Allen Toussaint. All ten songs were written or co-written by Lomax. Guests on the album included Jeff Beck (contributing a guitar solo to the title track). However, before the album's release, the band had split into two factions, with Lomax and Gardner leading a short-lived band called White Lady, before Lomax returned to a solo career.
~ Wiki
One Live Badger is the easier Badger album to find, and the one worth having anyway. As the album's title indicates, the band also took the unusual step of making their first album a live recording of original songs. It has aged very well -- with all the energy of live performance, there's none of the usual studio excesses or noodling of the era. The Yes connection via Tony Kaye is abundantly evident; the album was co-produced by Yes singer Jon Anderson, uses long instrumental breaks and prominent Hammond organ solos, and features the obligatory Roger Dean cover art. Nonetheless, the brooding lyrics and soulful harmonies make comparisons to Traffic and Blind Faith a much closer musical match. The first half of the album is excellent, kicking off with the pleasingly hoarse vocals of David Foster on the full-tilt rocker "Wheel of Fortune" and the pensive "Fountain." There's an especially tight rhythm section underlying the restrained guitar work of "Wind of Change," combining to produce the album's best song. But the second half of the album, with rather mopy numbers like "The Preacher," doesn't quite keep up this momentum. Reissued as a CD in 1993 by Repertoire Records.
~ Paul Collins, All Music
Wiki | Discogs | All Music
***************

Badger - One Live Badger (1973) [1993, Reissue]

Track List:

01. Wheel of Fortune [07:51]
02. Fountain [07:22]
03. Wind of Change [07:18]
04. River [06:50]
05. The Preacher [04:00]
06. On the Way Home [07:40]

Exact Audio Copy V1.0 beta 1 from 15. November 2010

EAC extraction logfile from 27. September 2015, 17:52

Badger / One Live Badger

Used drive : MATSHITADVD-RAM UJ8A0AS Adapter: 0 ID: 1

Read mode : Secure
Utilize accurate stream : Yes
Defeat audio cache : Yes
Make use of C2 pointers : No

Read offset correction

: 102
Overread into Lead-In and Lead-Out : No
Fill up missing offset samples with silence : Yes
Delete leading and trailing silent blocks : No
Null samples used in CRC calculations : Yes
Used interface
: Native Win32 interface for Win NT & 2000

Used output format : Internal WAV Routines
Sample format : 44.100 Hz; 16 Bit; Stereo

TOC of the extracted CD Track | Start | Length | Start sector | End sector
--1 | 0:00.00 | 7:50.52 | 0 | 35301 2 | 7:50.52 | 7:22.00 | 35302 | 68451 3 | 15:12.52 | 7:17.13 | 68452 | 101239 4 | 22:29.65 | 6:49.57 | 101240 | 131971 5 | 29:19.47 | 3:59.10 | 131972 | 149906 6 | 33:18.57 | 7:39.18 | 149907 | 184349

Range status and errors

Selected range Filename C:\Users\Alex\Music\Alexharvey\Badger - One Live Badger.wav Peak level 99.2 %
Extraction speed 0.2 X
Range quality 100.0 %
Test CRC 739515F9
Copy CRC 739515F9
Copy OK

No errors occurred


AccurateRip summary

Track 1 accurately ripped (confidence 4) [6981FC0D]
Track 2 accurately ripped (confidence 4) [2547125A]
Track 3 accurately ripped (confidence 4) [7D6B376B]
Track 4 accurately ripped (confidence 4) [5DA0247A]
Track 5 accurately ripped (confidence 4) [98C5C218]
Track 6 accurately ripped (confidence 4) [DD416011]

All tracks accurately ripped

End of status report

==== Log checksum 016083020CCBBB64EC5D5A48FB76ADBCE910D60D7CC8A03157280934607994EE ====

foobar2000 1.2.6 / Dynamic Range Meter 1.1.1
log date: 2015-09-28 03:33:17

Analyzed: Badger / One Live Badger

DR Peak RMS Duration Track

DR11 -0.07 dB -12.81 dB 7:51 01-Wheel of Fortune
DR11 -0.07 dB -12.86 dB 7:22 02-Fountain
DR10 -0.07 dB -12.38 dB 7:17 03-Wind of Change
DR11 -0.07 dB -12.38 dB 6:50 04-River
DR10 -0.26 dB -12.93 dB 3:59 05-The Preacher
DR9 -0.08 dB -11.69 dB 7:39 06-On the Way Home

Number of tracks: 6
Official DR value: DR10

Samplerate: 44100 Hz
Channels: 2
Bits per sample: 16
Bitrate: 953 kbps
Codec: FLAC

[CUETools log; Date: 28.09.2015 3:33:08; Version: 2.1.5]
[CTDB TOCID: uK0anKY.Dtzg_G3WXWGLKVf2GGc-] found.
Track | CTDB Status
1 | (7/7) Accurately ripped
2 | (7/7) Accurately ripped
3 | (7/7) Accurately ripped
4 | (7/7) Accurately ripped
5 | (7/7) Accurately ripped
6 | (7/7) Accurately ripped
[AccurateRip ID: 000a3df7-0035dfb1-38099a06] found.
Track [ CRC | V2 ] Status
01 [6981fc0d|c823d6ea] (4+0/4) Accurately ripped
02 [2547125a|d232d3f2] (4+0/4) Accurately ripped
03 [7d6b376b|f7b549a3] (4+0/4) Accurately ripped
04 [5da0247a|87c8714c] (4+0/4) Accurately ripped
05 [98c5c218|e61d3f95] (4+0/4) Accurately ripped
06 [dd416011|7e7e5108] (4+0/4) Accurately ripped

Track Peak [ CRC32 ] [W/O NULL] [ LOG ]
-- 99,2 [739515F9] [D2B69925] CRC32
01 99,2 [0E10DFD6] [6BA0F61A]
02 99,2 [D62AB289] [63F0ECF2]
03 99,2 [DE02175B] [2457A124]
04 99,2 [868E0267] [43F939FB]
05 97,0 [57878E82] 2C892D3
06 99,0 [4A1DFB7B] [9880B7EF]

Badger - One Live Badger (1973) [1993, Reissue]

Badger - One Live Badger (1973) [1993, Reissue]


DOWNLOAD LINKS:
(Premium Recommended)


All above links are interchangable. No password

Direct Download

Tags: Badger, Badger, Reissue

Badger - One Live Badger (1973) [1993, Reissue] Download via Hotfile Rapidshare Fileserve Megaupload & FileSonic, Badger - One Live Badger (1973) [1993, Reissue] free torrent downloads included crack, serial, keygen.


Attention!Information

Members of Guest cannot leave comments.