Lavitz, Weckl, Gambale, Goodman, Patitucci & Morse - School Of The Arts (2007) {Magnatude}

Download Now

Lavitz, Weckl, Gambale, Goodman, Patitucci & Morse - School Of The Arts (2007) {Magnatude}

Lavitz, Weckl, Gambale, Goodman, Patitucci & Morse - School Of The Arts (2007) {Magnatude}
EAC 0.99pb4 | FLAC Image | Cue+Log | Full Scans 300dpi | 394MB + 5% Recovery
Genre: Fusion

"It may be an all-acoustic affair (with the exception of electric bass), but School of the Arts bristles with fusion energy. That will come as no surprise to anyone familiar with even a few of the names on this project spearheaded by pianist T Lavitz, who first came to attention in 1979 when he joined The Dixie Dregs, guitarist Steve Morse's country-tinged progressive fusion group that released a string of outstanding albums between 1975 and 1982, and still reconvenes on rare occasion to this day."

Track List
01. Fairweather Green 5:29
02. No Time Flat 4:49
03. On Fire 4:54
04. Portrait 6:19
05. Like This 4:55
06. High Falutin' Blues 5:10
07. Gambashwari 5:03
08. Dinosaur Dance 6:09
09. Teaser 5:09
10. A Little Mouse Music 7:41
11. Maybe Next Time 3:58

musicians
T Lavitz - piano, bass on 3
Dave Weckl - drums, percussion
Frank Gambale - acoustic guitar
Jerry Goodman - violin
John Patitucci - acoustic and electric bass
Steve Morse - acoustic guitar on tracks 3, 4

Produced by T Lavitz

Exact Audio Copy V0.99 prebeta 4 from 23. January 2008

EAC extraction logfile from 19. March 2009, 2:20

Lavitz, Weckl, Gambale, Goodman, Patitucci & Morse / School Of The Arts

Used drive : HL-DT-STDVDRAM GSA-4167B Adapter: 0 ID: 3

Read mode : Secure
Utilize accurate stream : Yes
Defeat audio cache : Yes
Make use of C2 pointers : No

Read offset correction

: 667
Overread into Lead-In and Lead-Out : No
Fill up missing offset samples with silence : Yes
Delete leading and trailing silent blocks : No
Null samples used in CRC calculations : Yes
Used interface
: Installed external ASPI interface

Used output format : User Defined Encoder
Selected bitrate : 128 kBit/s
Quality : High
Add ID3 tag : No
Command line compressor : G:\Program Files\Exact Audio Copy\wavpack.exe
Additional command line options : -hm -w "Title=%t" -w "Artist=%a" -w "Year=%y" -w "Genre=%m" %s %d

TOC of the extracted CD Track | Start | Length | Start sector | End sector
--1 | 0:00.00 | 5:28.74 | 0 | 24673 2 | 5:28.74 | 4:49.56 | 24674 | 46404 3 | 10:18.55 | 4:54.03 | 46405 | 68457 4 | 15:12.58 | 6:20.68 | 68458 | 97025 5 | 21:33.51 | 4:55.12 | 97026 | 119162 6 | 26:28.63 | 5:09.61 | 119163 | 142398 7 | 31:38.49 | 5:02.64 | 142399 | 165112 8 | 36:41.38 | 6:08.63 | 165113 | 192775 9 | 42:50.26 | 5:09.20 | 192776 | 215970
10 | 47:59.46 | 7:42.13 | 215971 | 250633
11 | 55:41.59 | 3:57.44 | 250634 | 268452

Range status and errors

Selected range Filename F:\WAV\Lavitz, Weckl, Gambale, Goodman, Patitucci & Morse - School Of The Arts.wav Peak level 97.7 %
Range quality 100.0 %
Test CRC A3C69571
Copy CRC A3C69571
Copy OK

No errors occurred


AccurateRip summary

Track 1 cannot be verified as accurate (confidence 3) [DEF61B04], AccurateRip returned [CA7B2B4C]
Track 2 cannot be verified as accurate (confidence 3) [6CBB0B6E], AccurateRip returned [DD3ED2CE]
Track 3 cannot be verified as accurate (confidence 3) [0D8375BC], AccurateRip returned [9C81389C]
Track 4 cannot be verified as accurate (confidence 3) [485066F5], AccurateRip returned [C79D4ABD]
Track 5 cannot be verified as accurate (confidence 3) [FACAC66B], AccurateRip returned [C96551EB]
Track 6 cannot be verified as accurate (confidence 3) [11E8FC20], AccurateRip returned [CD55A56E]
Track 7 cannot be verified as accurate (confidence 3) [D8CC5A72], AccurateRip returned [52E952F4]
Track 8 cannot be verified as accurate (confidence 3) [9BFBF91C], AccurateRip returned [7115BE54]
Track 9 cannot be verified as accurate (confidence 3) [9ACADE26], AccurateRip returned [2AC307B6]
Track 10 cannot be verified as accurate (confidence 3) 936836D, AccurateRip returned [38D33FC5]
Track 11 cannot be verified as accurate (confidence 3) [31BF938F], AccurateRip returned [E1223ACF]

No tracks could be verified as accurate
You may have a different pressing from the one(s) in the database

End of status report

Analyzed: Lavitz, Weckl, Gambale, Goodman, Patitucci & Morse / School Of The Arts

DR Peak RMS Duration Track

DR12 -0.24 dB -13.34 dB 5:29 01-Fairweather Green
DR11 -0.25 dB -13.23 dB 4:50 02-No Time Flat
DR12 -0.24 dB -14.00 dB 4:54 03-On Fire
DR11 -0.27 dB -13.25 dB 6:21 04-Portrait
DR12 -0.26 dB -13.24 dB 4:55 05-Like This
DR11 -0.26 dB -13.31 dB 5:10 06-High Falutin' Blues
DR11 -0.24 dB -12.94 dB 5:03 07-Gambashwari
DR11 -0.26 dB -13.39 dB 6:09 08-Dinosaur Dance
DR11 -0.24 dB -13.15 dB 5:09 09-Teaser
DR13 -0.20 dB -14.77 dB 7:42 10-A Little Mouse Music
DR12 -0.23 dB -14.37 dB 3:58 11-Maybe Next Time

Number of tracks: 11
Official DR value: DR11

Samplerate: 44100 Hz
Channels: 2
Bits per sample: 16
Bitrate: 917 kbps
Codec: FLAC

Lavitz, Weckl, Gambale, Goodman, Patitucci & Morse - School Of The Arts (2007) {Magnatude}

Lavitz, Weckl, Gambale, Goodman, Patitucci & Morse - School Of The Arts (2007) {Magnatude}

Lavitz, Weckl, Gambale, Goodman, Patitucci & Morse - School Of The Arts (2007) {Magnatude}



DOWNLOAD LINKS:
Buy Premium To Support Me & Get Resumable Support & Max Speed


Links are Interchangeable - No Password - Single Extraction

Direct Download

Tags: Lavitz, Gambale, Goodman, Patitucci, School, Magnatude

Lavitz, Weckl, Gambale, Goodman, Patitucci & Morse - School Of The Arts (2007) {Magnatude} Download via Hotfile Rapidshare Fileserve Megaupload & FileSonic, Lavitz, Weckl, Gambale, Goodman, Patitucci & Morse - School Of The Arts (2007) {Magnatude} free torrent downloads included crack, serial, keygen.


Attention!Information

Members of Guest cannot leave comments.