Charles Fambrough - The Charmer (1992) {CTI}

Download Now

Charles Fambrough - The Charmer (1992) {CTI}

Charles Fambrough - The Charmer (1992) {CTI}
X Lossless Decoder | FLAC tracks | Cue+Log+M3U | Full Scans 300dpi | 271MB + 5% Recovery
Genre: Hard Bop, Post-Bop

"As usual, bassist Charles Fambrough assembled an impressive all-star group for this CD. Such players as altoist Kenny Garrett, Grover Washington, Jr. (on soprano), trumpeter Roy Hargrove, pianist Kenny Kirkland and even pianist Abdullah Ibrahim (making a rare appearance as a sideman for his own "Beautiful Love") are heard from, along with a few overlapping rhythm sections."

Track List
01. The Charmer (Fambrough) 6:40
02. Beautiful Love (Ibrahim) 5:54
03. Alycia/Andrea (Fambrough) 5:53
04. Oasis (Fambrough) 5:19
05. Lullaby for Shana Bly (Washington) 6:01
06. Little Man (Fambrough) 4:40
07. Sparks (O'Connell) 8:41

musicians
Charles Fambrough - bass
Roy Hargrove - trumpet on 3
Grover Washington, Jr. - soprano saxophone on 2,5, 6
Kenny Garrett - alto saxophone on 1, 4, 7
Bill O'Connell - piano on 1, 2, 4, 7
Abdullah Ibrahim - piano on 2
Kenny Kirkland - piano on 3, 5
Steven Scott - piano on 6
Jeff Watts - drums on 1, 3, 5
Billy Drummond - drums on 4, 7
Yoron Israel - drums on 6
Bashiri Johnson - percussion on 1-3, 5
Doc Gibbs - percussion on 1, 3

Produced by Creed Taylor

X Lossless Decoder version 20130720 (144.0)

XLD extraction logfile from 2013-09-30 01:10:41 -0400

Charles Fambrough / The Charmer

Used drive : PIONEER DVD-RW DVR-108 (revision 1.18)
Media type : Pressed CD

Ripper mode : XLD Secure Ripper
Disable audio cache : OK for the drive with a cache less than 1375KiB
Make use of C2 pointers : NO
Read offset correction : 48
Max retry count : 100
Gap status : Analyzed, Appended (except HTOA)

TOC of the extracted CD
Track | Start | Length | Start sector | End sector
--1 | 00:00:50 | 06:40:00 | 50 | 30049 2 | 06:40:50 | 05:54:37 | 30050 | 56636 3 | 12:35:12 | 05:52:40 | 56637 | 83076 4 | 18:27:52 | 05:18:48 | 83077 | 106974 5 | 23:46:25 | 06:00:60 | 106975 | 134034 6 | 29:47:10 | 04:39:55 | 134035 | 155014 7 | 34:26:65 | 08:41:05 | 155015 | 194094

List of alternate offset correction values# | Absolute | Relative | Confidence
1 | -750 | -798 | 2

AccurateRip Summary (DiscID: 000b987e-004543b7-5e0a1b07)
Track 01 : OK (v1+v2, confidence 6/8)
Track 02 : OK (v1+v2, confidence 6/8)
Track 03 : OK (v1+v2, confidence 5/7)
Track 04 : OK (v1+v2, confidence 6/8)
Track 05 : OK (v1+v2, confidence 5/7)
Track 06 : OK (v1+v2, confidence 6/8)
Track 07 : OK (v1+v2, confidence 4/6)->All tracks accurately ripped.

All Tracks
Album gain : -5.25 dB
Peak : 0.953217
StatisticsRead error : 0Jitter error (maybe fixed) : 0Retry sector count : 0Damaged sector count : 0

Track 01
Filename : /Volumes/Thunder/Envy/Music/Charles Fambrough - The Charmer (1992) [FLAC]/01 The Charmer.flac
Pre-gap length : 00:02:50 Track gain : -4.14 dB
Peak : 0.953186
CRC32 hash (test run) : 3AAAE27E
CRC32 hash : 3AAAE27E
CRC32 hash (skip zero) : 414C076A
AccurateRip v1 signature : 1BF41C04
AccurateRip v2 signature : 456803FA->Accurately ripped (v1+v2, confidence 3+3/8)
StatisticsRead error : 0Jitter error (maybe fixed) : 0Retry sector count : 0Damaged sector count : 0

Track 02
Filename : /Volumes/Thunder/Envy/Music/Charles Fambrough - The Charmer (1992) [FLAC]/02 Beautiful Love.flac
Pre-gap length : 00:01:50 Track gain : -3.03 dB
Peak : 0.904663
CRC32 hash (test run) : DA137A7C
CRC32 hash : DA137A7C
CRC32 hash (skip zero) : D57A108F
AccurateRip v1 signature : 63483D8E
AccurateRip v2 signature : FE91E055->Accurately ripped (v1+v2, confidence 3+3/8)
StatisticsRead error : 0Jitter error (maybe fixed) : 0Retry sector count : 0Damaged sector count : 0

Track 03
Filename : /Volumes/Thunder/Envy/Music/Charles Fambrough - The Charmer (1992) [FLAC]/03 Alycia/Andrea.flac Track gain : -4.08 dB
Peak : 0.952820
CRC32 hash (test run) : FF75E69D
CRC32 hash : FF75E69D
CRC32 hash (skip zero) : 83DED921
AccurateRip v1 signature : B08646D4
AccurateRip v2 signature : 0E379741->Accurately ripped (v1+v2, confidence 2+3/7)
StatisticsRead error : 0Jitter error (maybe fixed) : 0Retry sector count : 0Damaged sector count : 0

Track 04
Filename : /Volumes/Thunder/Envy/Music/Charles Fambrough - The Charmer (1992) [FLAC]/04 Oasis.flac Track gain : -4.56 dB
Peak : 0.952881
CRC32 hash (test run) : E09C50B1
CRC32 hash : E09C50B1
CRC32 hash (skip zero) : 9224EEE4
AccurateRip v1 signature : DA90B418
AccurateRip v2 signature : C7CBE38C->Accurately ripped (v1+v2, confidence 3+3/8)
StatisticsRead error : 0Jitter error (maybe fixed) : 0Retry sector count : 0Damaged sector count : 0

Track 05
Filename : /Volumes/Thunder/Envy/Music/Charles Fambrough - The Charmer (1992) [FLAC]/05 Lullaby For Shana Bly.flac
Pre-gap length : 00:01:15 Track gain : -5.65 dB
Peak : 0.952789
CRC32 hash (test run) : 2CC5EDD7
CRC32 hash : 2CC5EDD7
CRC32 hash (skip zero) : B39D0A04
AccurateRip v1 signature : 27D2DF5F
AccurateRip v2 signature : B84DA4A4->Accurately ripped (v1+v2, confidence 2+3/7)
StatisticsRead error : 0Jitter error (maybe fixed) : 0Retry sector count : 0Damaged sector count : 0

Track 06
Filename : /Volumes/Thunder/Envy/Music/Charles Fambrough - The Charmer (1992) [FLAC]/06 Little Man.flac Track gain : -6.36 dB
Peak : 0.953125
CRC32 hash (test run) : AAD1FA03
CRC32 hash : AAD1FA03
CRC32 hash (skip zero) : B25AB1F6
AccurateRip v1 signature : 901D115E
AccurateRip v2 signature : 07D10FBB->Accurately ripped (v1+v2, confidence 3+3/8)
StatisticsRead error : 0Jitter error (maybe fixed) : 0Retry sector count : 0Damaged sector count : 0

Track 07
Filename : /Volumes/Thunder/Envy/Music/Charles Fambrough - The Charmer (1992) [FLAC]/07 Sparks.flac Track gain : -6.01 dB
Peak : 0.953217
CRC32 hash (test run) : C891B322
CRC32 hash : C891B322
CRC32 hash (skip zero) : E2891D83
AccurateRip v1 signature : 332B5FB3
AccurateRip v2 signature : CF31B9EF->Accurately ripped (v1+v2, confidence 2+2/6)
StatisticsRead error : 0Jitter error (maybe fixed) : 0Retry sector count : 0Damaged sector count : 0

No errors occurred

End of status report

Analyzed: Charles Fambrough / The Charmer

DR Peak RMS Duration Track

DR12 -0.42 dB -14.84 dB 6:40 01-The Charmer
DR12 -0.87 dB -15.57 dB 5:54 02-Beautiful Love
DR13 -0.42 dB -16.02 dB 5:53 03-Alycia/Andrea
DR12 -0.42 dB -14.97 dB 5:19 04-Oasis
DR10 -0.42 dB -12.92 dB 6:01 05-Lullaby for Shana Bly
DR9 -0.42 dB -12.10 dB 4:40 06-Little Man
DR10 -0.42 dB -13.36 dB 8:41 07-Sparks

Number of tracks: 7
Official DR value: DR11

Samplerate: 44100 Hz
Channels: 2
Bits per sample: 16
Bitrate: 941 kbps
Codec: FLAC

Charles Fambrough - The Charmer (1992) {CTI}

Charles Fambrough - The Charmer (1992) {CTI}

Charles Fambrough - The Charmer (1992) {CTI}

Rip by Team


DOWNLOAD LINKS:
(Premium Recommended)


All above links are interchangable. No password

Direct Download

Tags: Charles, Fambrough, Charmer

Charles Fambrough - The Charmer (1992) {CTI} Download via Hotfile Rapidshare Fileserve Megaupload & FileSonic, Charles Fambrough - The Charmer (1992) {CTI} free torrent downloads included crack, serial, keygen.


Attention!Information

Members of Guest cannot leave comments.