Bad Company - Run With The Pack (1976) [2000, Swan 7567-92435-2]

Download Now

Bad Company - Run With The Pack (1976) [2000, Swan 7567-92435-2]

Bad Company - Run With The Pack (1976)
EAC | Flac(Image) + Cue + Log & MP3 CBR 320Kbps
Swan 7567-92435-2 | ~ 263 or 106 Mb | Scans Included
Classic Rock / Hard Rock

"Run with the Pack, Bad Company's third and best album, reiterates the raw, rowdy style of their debut, Bad Co., solidifies the loose ends that marred Straight Shooter and adds new directions of its own. Maybe most importantly, the record is refreshing proof that rockers don't have to produce literature in their lyrics or cultivate personae to create good art. Bad Company's is a purely musical triumph..."


Tracklist:

01. Live For The Music 3:59
02. Simple Man 3:39
03. Honey Child 3:17
04. Love Me Somebody 3:09
05. Run With The Pack 5:23
06. Silver, Blue & Gold 5:05
07. Young Blood 2:42
08. Do Right By Your Woman 2:53
09. Sweet Lil' Sister 3:32
10. Fade Away 2:53

Exact Audio Copy V1.1 from 23. June 2015

EAC extraction logfile from 23. September 2015, 0:44

Bad Company / Run With The Pack (7567-92435-2)

Used drive : PLEXTOR DVDR PX-891SA Adapter: 1 ID: 0

Read mode : Secure
Utilize accurate stream : Yes
Defeat audio cache : Yes
Make use of C2 pointers : No

Read offset correction

: 6
Overread into Lead-In and Lead-Out : No
Fill up missing offset samples with silence : Yes
Delete leading and trailing silent blocks : No
Null samples used in CRC calculations : Yes
Used interface
: Native Win32 interface for Win NT & 2000

Used output format : User Defined Encoder
Selected bitrate : 1024 kBit/s
Quality : High
Add ID3 tag : No
Command line compressor : C:\Program Files\Exact Audio Copy\Flac\flac.exe
Additional command line options : -V -8 -T "Genre=%genre%" -T "Artist=%artist%" -T "Title=%title%" -T "Album=%albumtitle%" -T "Date=%year%" -T "Tracknumber=%tracknr%" -T "Comment=%comment%" %source%

TOC of the extracted CD Track | Start | Length | Start sector | End sector
--1 | 0:00.00 | 3:58.65 | 0 | 17914 2 | 3:58.65 | 3:38.40 | 17915 | 34304 3 | 7:37.30 | 3:17.15 | 34305 | 49094 4 | 10:54.45 | 3:08.50 | 49095 | 63244 5 | 14:03.20 | 5:23.17 | 63245 | 87486 6 | 19:26.37 | 5:04.55 | 87487 | 110341 7 | 24:31.17 | 2:41.50 | 110342 | 122466 8 | 27:12.67 | 2:53.25 | 122467 | 135466 9 | 30:06.17 | 3:31.55 | 135467 | 151346
10 | 33:37.72 | 2:52.43 | 151347 | 164289

Range status and errors

Selected range Filename H:\dafnaplus\Bad Company\1976 Run With The Pack\Bad Company - Run With The Pack (7567-92435-2).wav Peak level 100.0 %
Extraction speed 7.2 X
Range quality 99.9 %
Test CRC 59F51801
Copy CRC 59F51801
Copy OK

No errors occurred


AccurateRip summary

Track 1 accurately ripped (confidence 26) [32299084] (AR v2)
Track 2 accurately ripped (confidence 26) [CCACDA3E] (AR v2)
Track 3 accurately ripped (confidence 26) [9EFEEB3F] (AR v2)
Track 4 accurately ripped (confidence 26) [EF3C0972] (AR v2)
Track 5 accurately ripped (confidence 26) [15E243CF] (AR v2)
Track 6 accurately ripped (confidence 26) [4CDB5E3F] (AR v2)
Track 7 accurately ripped (confidence 26) [7685B95C] (AR v2)
Track 8 accurately ripped (confidence 26) [E76040ED] (AR v2)
Track 9 accurately ripped (confidence 26) [07D33A34] (AR v2)
Track 10 accurately ripped (confidence 26) [67D6AD53] (AR v2)

All tracks accurately ripped

End of status report

- CUETools DB Plugin V2.1.6

[CTDB TOCID: syfKG3k7vvspZE.YgWoprBYBtbs-] found
Submit result: already submitted
Track | CTDB Status
1 | (52/54) Accurately ripped
2 | (53/54) Accurately ripped
3 | (53/54) Accurately ripped
4 | (53/54) Accurately ripped
5 | (53/54) Accurately ripped
6 | (53/54) Accurately ripped
7 | (54/54) Accurately ripped
8 | (54/54) Accurately ripped
9 | (53/54) Accurately ripped
10 | (51/54) Accurately ripped

==== Log checksum 7C0DAD4D3D61400F1D1BCC13169A692F8C95BB088ECC31B8E26E065153FC43AB ====

foobar2000 1.2.9 / Dynamic Range Meter 1.1.1
log date: 2015-09-29 13:53:45

Analyzed: Bad Company / Run With The Pack (7567-92435-2)

DR Peak RMS Duration Track

DR8 0.00 dB -10.17 dB 3:59 01-Live For The Music
DR9 0.00 dB -11.00 dB 3:39 02-Simple Man
DR9 0.00 dB -9.94 dB 3:17 03-Honey Child
DR12 0.00 dB -13.81 dB 3:09 04-Love Me Somebody
DR9 0.00 dB -10.34 dB 5:23 05-Run With The Pack
DR9 0.00 dB -11.35 dB 5:05 06-Silver, Blue & Gold
DR9 0.00 dB -10.26 dB 2:42 07-Young Blood
DR10 0.00 dB -11.04 dB 2:53 08-Do Right By Your Woman
DR8 0.00 dB -9.39 dB 3:32 09-Sweet Lil' Sister
DR9 0.00 dB -11.25 dB 2:53 10-Fade Away

Number of tracks: 10
Official DR value: DR9

Samplerate: 44100 Hz
Channels: 2
Bits per sample: 16
Bitrate: 905 kbps
Codec: FLAC

[CUETools log; Date: 29.09.2015 13:35:51; Version: 2.1.4]
[CTDB TOCID: syfKG3k7vvspZE.YgWoprBYBtbs-] found.
Track | CTDB Status
1 | (52/54) Accurately ripped
2 | (53/54) Accurately ripped
3 | (53/54) Accurately ripped
4 | (53/54) Accurately ripped
5 | (53/54) Accurately ripped
6 | (53/54) Accurately ripped
7 | (54/54) Accurately ripped
8 | (54/54) Accurately ripped
9 | (53/54) Accurately ripped
10 | (51/54) Accurately ripped
[AccurateRip ID: 000e4818-0071f4ea-86088e0a] found.
Track [ CRC | V2 ] Status
01 [a6d74d31|32299084] (012+026/107) Accurately ripped
02 [99fc501f|ccacda3e] (012+026/108) Accurately ripped
03 [388abd2e|9efeeb3f] (011+026/106) Accurately ripped
04 [56b65d5b|ef3c0972] (011+026/107) Accurately ripped
05 [7184845a|15e243cf] (011+026/106) Accurately ripped
06 [998df711|4cdb5e3f] (012+026/106) Accurately ripped
07 [8e3259f4|7685b95c] (011+026/106) Accurately ripped
08 [6c6ac6ae|e76040ed] (011+026/106) Accurately ripped
09 [383cc6b9|07d33a34] (011+026/106) Accurately ripped
10 [7de81ed6|67d6ad53] (010+026/105) Accurately ripped
Offsetted by -664:
01 [44f5c661] (005/107) Accurately ripped
02 [42046d6f] (005/108) Accurately ripped
03 [cd87eda6] (005/106) Accurately ripped
04 be4642c (005/107) Accurately ripped
05 [db87c9f9] (005/106) Accurately ripped
06 [645e78c1] (005/106) Accurately ripped
07 [efe668fc] (005/106) Accurately ripped
08 [9a59ae8e] (005/106) Accurately ripped
09 [867e95f1] (005/106) Accurately ripped
10 [2ce1d7c6] (004/105) Accurately ripped
Offsetted by 664:
01 5371dc5 (023/107) Accurately ripped
02 [371980a7] (024/108) Accurately ripped
03 [a38d8cb6] (024/106) Accurately ripped
04 [6e022968] (024/107) Accurately ripped
05 [6895cb3d] (024/106) Accurately ripped
06 [cebd7561] (024/106) Accurately ripped
07 [2c7e4aec] (024/106) Accurately ripped
08 [3e7bdece] (024/106) Accurately ripped
09 [e9faf781] (024/106) Accurately ripped
10 [ceee65e6] (022/105) Accurately ripped

Track Peak [ CRC32 ] [W/O NULL] [ LOG ]
-- 99,9 [59F51801] [665B3270] CRC32
01 99,9 [01615349] [97379BC4]
02 99,9 [C8D8C4A2] [05351ED9]
03 99,9 [D4560AE7] [A72AD5AD]
04 99,9 [75A14D13] [FEADD58A]
05 99,9 [117A5C07] [98DAB4DE]
06 99,9 [8D0931F6] [3364092A]
07 99,9 [91F9C5C6] [9188B5B2]
08 99,9 [68DE8FF4] [E1714AE5]
09 99,9 [69084EE3] [3942BF90]
10 99,9 [694A309E] [7085ADAA]

Bad Company - Run With The Pack (1976) [2000, Swan 7567-92435-2]

All thanks go to dafnaplus



Download Bad Company - Run With The Pack (1976):

Download Links:
(Premium Recommended)


All above links are interchangable. No password

Direct Download

Tags: Company

Bad Company - Run With The Pack (1976) [2000, Swan 7567-92435-2] Download via Hotfile Rapidshare Fileserve Megaupload & FileSonic, Bad Company - Run With The Pack (1976) [2000, Swan 7567-92435-2] free torrent downloads included crack, serial, keygen.


Attention!Information

Members of Guest cannot leave comments.