VA - The Album (2001) 2CD

Download Now

VA - The Album (2001) 2CD

VA - The Album (2001) 2CD
EAC | FLAC | Tracks (Cue&Log) ~ 1.1 Gb (incl 5%) | Mp3 (CBR320) ~ 381 Mb (incl 5%) | Scans ~ 63 Mb | Time: 02:38:15
Genre: Alternative Pop/Rock, BritPop, Pop-Punk, Electronic | Label: Virgin | # VTDCD 380, 7243 8 10357 2 6

"This compilation of 39 tracks, rather arrogantly titled The Album, offers a good mix of current guitar-based pop, rock and indie with the bonus of Fatboy Slim's housey "Star 69" and Roni Size's "Dirty Beats" tacked on the end. This is the sort of album you could expect to hear down the student union bar with a range of songs to cover all bases for even the most fussy of compilation critics. CD2 holds the indie-rock lighter in the air with Coldplay's "Trouble" and David Gray's "Late Night Radio" sandwiched between tracks by likely lads Supergrass ("Movin'") and Blur ("Coffee & TV"). Less obvious inclusions are alt.country masters Grandaddy ("The Crystal Lake") and gentle folkies the Kings of Convenience ("Toxic Girl"). CD1 is the less easy-listening of the two with some rock guitar riffing from the Manics ("You Stole The Sun..."), JJ72 ("Oxygen") and perfectly hip Placebo's "Taste In Men". If you're not into dance and the latest compilation from clubland isn't your cup of tea, then this could well be The Album before a good night out."

Tracklist:

CD1:

01. Gorillaz - Clint Eastwood (03:44)
02. Stereophonics - Mr. Writer (04:27)
03. Wheatus - Teenage Dirtbag (04:01)
04. Ash - Burn Baby Burn (03:29)
05. Muse - Plug In Baby (03:19)
06. Feeder - Buck Rogers (03:12)
07. Robbie Williams - Let Love Be Your Energy (04:05)
08. Toploader - Dancing In The Moonlight (03:47)
09. Creed - With Arms Wide Open (03:29)
10. Manic Street Preachers - You Stole The Sun From My Heart (04:20)
11. JJ72 - Oxygen (03:39)
12. Soulwax - Too Many DJs (03:26)
13. My Vitriol - Always: Your Way (03:49)
14. Blink 182 - All The Small Things (02:49)
15. Sunna - I'm Not Trading (03:37)
16. Placebo - Taste In Men (03:59)
17. Mansun - I Can Only Disappoint U (04:19)
18. Semisonic - Closing Time (03:51)
19. Radiohead - Optimistic (04:51)
20. Fatboy Slim - Star 69 (03:33)
21. Roni Size & Reprazent - Dirty Beatz (03:12)

CD2:

01. Coldplay - Trouble (04:31)
02. Starsailor - Fever (04:01)
03. Turin Breaks - The Door (03:37)
04. Richard Ashcroft - A Song For The Lovers (05:21)
05. Supergrass - Moving (04:25)
06. Badly Drawn Boy - Once Around The Block (04:01)
07. Blur - Coffee And TV (05:02)
08. Divine Comedy - Love What You Do (03:54)
09. Doves - Catch The Sun (04:46)
10. Alabama 3 - Woke Up This Morning (04:04)
11. Gomez - Tijuana Lady (07:03)
12. Air - All I Need (03:59)
13. Kings Of Convenience - Toxic Girl (03:07)
14. Grandaddy - The Crystal Lake (05:00)
15. David Gray - Late Night Radio (03:53)
16. Neil Finn - Wherever You Are (04:43)
17. Alfie - Bookends (03:53)
18. Elbow - Red (03:39)


Exact Audio Copy V1.0 beta 3 from 29. August 2011

Отчёт EAC об извлечении, выполненном 18. сентября 2015, 21:51

Various / The Album (Disc 1)

Дисковод: TSSTcorpCDDVDW SH-222BB Adapter: 3 ID: 0

Режим чтения : Достоверность
Использование точного потока : Да
Отключение кэша аудио : Да
Использование указателей C2 : Нет

Коррекция смещения при чтении : 6
Способность читать области Lead-in и Lead-out : Нет
Заполнение пропущенных сэмплов тишиной : Да
Удаление блоков с тишиной в начале и конце : Нет
При вычислениях CRC использовались нулевые сэмплы : Да
Интерфейс : Установленный внешний ASPI-интерфейс
Обработка зазоров
: Добавлено к предыдущему треку

Выходной формат : Пользовательский кодировщик
Выбранный битрейт : 128 kBit/s
Качество : Высокий
Добавление ID3-тега : Нет
Утилита сжатия : C:\Program Files\Exact Audio Copy\FLAC\FLAC.EXE
Дополнительные параметры : -V -8 -T "Genre=%genre%" -T "Artist=%artist%" -T "Title=%title%" -T "Album=%albumtitle%" -T "Date=%year%" -T "Tracknumber=%tracknr%" -T "Comment=%comment%" %source%

TOC извлечённого CD Трек | Старт | Длительность | Начальный сектор | Конечный сектор

1 | 0:00.00 | 3:44.35 | 0 | 16834
2 | 3:44.35 | 4:27.22 | 16835 | 36881
3 | 8:11.57 | 4:01.38 | 36882 | 54994
4 | 12:13.20 | 3:29.12 | 54995 | 70681
5 | 15:42.32 | 3:19.33 | 70682 | 85639
6 | 19:01.65 | 3:12.22 | 85640 | 100061
7 | 22:14.12 | 4:05.23 | 100062 | 118459
8 | 26:19.35 | 3:47.42 | 118460 | 135526
9 | 30:07.02 | 3:29.00 | 135527 | 151201
10 | 33:36.02 | 4:20.60 | 151202 | 170761
11 | 37:56.62 | 3:39.20 | 170762 | 187206
12 | 41:36.07 | 3:26.55 | 187207 | 202711
13 | 45:02.62 | 3:49.25 | 202712 | 219911
14 | 48:52.12 | 2:49.35 | 219912 | 232621
15 | 51:41.47 | 3:37.20 | 232622 | 248916
16 | 55:18.67 | 3:59.20 | 248917 | 266861
17 | 59:18.12 | 4:19.28 | 266862 | 286314
18 | 63:37.40 | 3:51.15 | 286315 | 303654
19 | 67:28.55 | 4:51.60 | 303655 | 325539
20 | 72:20.40 | 3:33.65 | 325540 | 341579
21 | 75:54.30 | 3:12.70 | 341580 | 356049

Трек 1 Имя файла I:\MOI_RAZDACI\VA The Album\VA.The.Album_2XCD_2001\CD-1\01. Gorillaz - Clint Eastwood.wav Длина предзазора 0:00:02.00 Пиковый уровень 94.2 %
Скорость извлечения 1.9 X
Качество трека 100.0 %
CRC теста EA0763D3
CRC копии EA0763D3
Точное извлечение (достоверность 26) [095A99A9] (AR v2)
Копирование... OK

Трек 2 Имя файла I:\MOI_RAZDACI\VA The Album\VA.The.Album_2XCD_2001\CD-1\02. Stereophonics - Mr. Writer.wav Длина предзазора 0:00:00.22 Пиковый уровень 98.0 %
Скорость извлечения 2.2 X
Качество трека 100.0 %
CRC теста 749CDAD3
CRC копии 749CDAD3
Точное извлечение (достоверность 26) [034D4A7A] (AR v2)
Копирование... OK

Трек 3 Имя файла I:\MOI_RAZDACI\VA The Album\VA.The.Album_2XCD_2001\CD-1\03. Wheatus - Teenage Dirtbag.wav Длина предзазора 0:00:00.04 Пиковый уровень 98.0 %
Скорость извлечения 2.3 X
Качество трека 100.0 %
CRC теста 2D54894F
CRC копии 2D54894F
Точное извлечение (достоверность 26) [9C5AF91E] (AR v2)
Копирование... OK

Трек 4 Имя файла I:\MOI_RAZDACI\VA The Album\VA.The.Album_2XCD_2001\CD-1\04. Ash - Burn Baby Burn.wav Длина предзазора 0:00:00.03 Пиковый уровень 93.3 %
Скорость извлечения 1.9 X
Качество трека 99.9 %
CRC теста 48E0469C
CRC копии 48E0469C
Точное извлечение (достоверность 26) [DE28B3C0] (AR v2)
Копирование... OK

Трек 5 Имя файла I:\MOI_RAZDACI\VA The Album\VA.The.Album_2XCD_2001\CD-1\05. Muse - Plug In Baby.wav Длина предзазора 0:00:00.57 Пиковый уровень 98.0 %
Скорость извлечения 2.5 X
Качество трека 100.0 %
CRC теста 38FD6090
CRC копии 38FD6090
Точное извлечение (достоверность 26) [8238776D] (AR v2)
Копирование... OK

Трек 6 Имя файла I:\MOI_RAZDACI\VA The Album\VA.The.Album_2XCD_2001\CD-1\06. Feeder - Buck Rogers.wav Длина предзазора 0:00:00.18 Пиковый уровень 95.5 %
Скорость извлечения 2.6 X
Качество трека 100.0 %
CRC теста DDFAD449
CRC копии DDFAD449
Точное извлечение (достоверность 26) [CF299D85] (AR v2)
Копирование... OK

Трек 7 Имя файла I:\MOI_RAZDACI\VA The Album\VA.The.Album_2XCD_2001\CD-1\07. Robbie Williams - Let Love Be Your Energy.wav Длина предзазора 0:00:00.58 Пиковый уровень 98.2 %
Скорость извлечения 2.8 X
Качество трека 100.0 %
CRC теста 98B65B8B
CRC копии 98B65B8B
Точное извлечение (достоверность 26) [3D8EC7F9] (AR v2)
Копирование... OK

Трек 8 Имя файла I:\MOI_RAZDACI\VA The Album\VA.The.Album_2XCD_2001\CD-1\08. Toploader - Dancing In The Moonlight.wav Длина предзазора 0:00:00.26 Пиковый уровень 97.9 %
Скорость извлечения 2.9 X
Качество трека 100.0 %
CRC теста 641A4088
CRC копии 641A4088
Точное извлечение (достоверность 25) [51757EDD] (AR v2)
Копирование... OK

Трек 9 Имя файла I:\MOI_RAZDACI\VA The Album\VA.The.Album_2XCD_2001\CD-1\09. Creed - With Arms Wide Open.wav Длина предзазора 0:00:00.15 Пиковый уровень 98.0 %
Скорость извлечения 3.0 X
Качество трека 100.0 %
CRC теста 9A87E575
CRC копии 9A87E575
Точное извлечение (достоверность 26) [DC38F79A] (AR v2)
Копирование... OK

Трек 10 Имя файла I:\MOI_RAZDACI\VA The Album\VA.The.Album_2XCD_2001\CD-1\10. Manic Street Preachers - You Stole The Sun From My Heart.wav Длина предзазора 0:00:00.38 Пиковый уровень 98.0 %
Скорость извлечения 3.2 X
Качество трека 100.0 %
CRC теста E7C21312
CRC копии E7C21312
Точное извлечение (достоверность 25) [22F939E6] (AR v2)
Копирование... OK

Трек 11 Имя файла I:\MOI_RAZDACI\VA The Album\VA.The.Album_2XCD_2001\CD-1\11. JJ72 - Oxygen.wav Длина предзазора 0:00:00.20 Пиковый уровень 94.3 %
Скорость извлечения 3.2 X
Качество трека 100.0 %
CRC теста 302CE734
CRC копии 302CE734
Точное извлечение (достоверность 26) [3C9751A5] (AR v2)
Копирование... OK

Трек 12 Имя файла I:\MOI_RAZDACI\VA The Album\VA.The.Album_2XCD_2001\CD-1\12. Soulwax - Too Many DJs.wav Пиковый уровень 92.4 %
Скорость извлечения 3.2 X
Качество трека 100.0 %
CRC теста 22888391
CRC копии 22888391
Точное извлечение (достоверность 26) [3A7CDAAA] (AR v2)
Копирование... OK

Трек 13 Имя файла I:\MOI_RAZDACI\VA The Album\VA.The.Album_2XCD_2001\CD-1\13. My Vitriol - Always- Your Way.wav Пиковый уровень 98.0 %
Скорость извлечения 3.4 X
Качество трека 100.0 %
CRC теста 497D6E96
CRC копии 497D6E96
Точное извлечение (достоверность 26) [6372E886] (AR v2)
Копирование... OK

Трек 14 Имя файла I:\MOI_RAZDACI\VA The Album\VA.The.Album_2XCD_2001\CD-1\14. Blink 182 - All The Small Things.wav Длина предзазора 0:00:00.12 Пиковый уровень 89.3 %
Скорость извлечения 3.3 X
Качество трека 100.0 %
CRC теста 9E6A898A
CRC копии 9E6A898A
Точное извлечение (достоверность 27) [8D92C85D] (AR v2)
Копирование... OK

Трек 15 Имя файла I:\MOI_RAZDACI\VA The Album\VA.The.Album_2XCD_2001\CD-1\15. Sunna - I'm Not Trading.wav Пиковый уровень 96.3 %
Скорость извлечения 3.5 X
Качество трека 100.0 %
CRC теста 288A0A85
CRC копии 288A0A85
Точное извлечение (достоверность 27) [C38594F8] (AR v2)
Копирование... OK

Трек 16 Имя файла I:\MOI_RAZDACI\VA The Album\VA.The.Album_2XCD_2001\CD-1\16. Placebo - Taste In Men.wav Пиковый уровень 90.6 %
Скорость извлечения 3.7 X
Качество трека 100.0 %
CRC теста 3CA4F8C1
CRC копии 3CA4F8C1
Точное извлечение (достоверность 27) [7540DDB9] (AR v2)
Копирование... OK

Трек 17 Имя файла I:\MOI_RAZDACI\VA The Album\VA.The.Album_2XCD_2001\CD-1\17. Mansun - I Can Only Disappoint U.wav Длина предзазора 0:00:00.09 Пиковый уровень 98.8 %
Скорость извлечения 3.8 X
Качество трека 100.0 %
CRC теста 3CE0EB92
CRC копии 3CE0EB92
Точное извлечение (достоверность 27) [3247A065] (AR v2)
Копирование... OK

Трек 18 Имя файла I:\MOI_RAZDACI\VA The Album\VA.The.Album_2XCD_2001\CD-1\18. Semisonic - Closing Time.wav Длина предзазора 0:00:00.20 Пиковый уровень 98.3 %
Скорость извлечения 3.9 X
Качество трека 100.0 %
CRC теста 9AFFDFD1
CRC копии 9AFFDFD1
Точное извлечение (достоверность 27) [36F87BF0] (AR v2)
Копирование... OK

Трек 19 Имя файла I:\MOI_RAZDACI\VA The Album\VA.The.Album_2XCD_2001\CD-1\19. Radiohead - Optimistic.wav Длина предзазора 0:00:00.74 Пиковый уровень 98.6 %
Скорость извлечения 2.6 X
Качество трека 99.9 %
CRC теста 29FE9CEE
CRC копии 29FE9CEE
Точность не определена (достоверность 32) [D457FB5E], AccurateRip вернул [8CBCD976] (AR v2)
Копирование... OK

Трек 20 Имя файла I:\MOI_RAZDACI\VA The Album\VA.The.Album_2XCD_2001\CD-1\20. Fatboy Slim - Star 69.wav Пиковый уровень 89.4 %
Скорость извлечения 4.0 X
Качество трека 100.0 %
CRC теста 3A87267B
CRC копии 3A87267B
Точное извлечение (достоверность 26) [386BA2C1] (AR v2)
Копирование... OK

Трек 21 Имя файла I:\MOI_RAZDACI\VA The Album\VA.The.Album_2XCD_2001\CD-1\21. Roni Size & Reprazent - Dirty Beatz.wav Пиковый уровень 98.0 %
Скорость извлечения 2.6 X
Качество трека 99.9 %
CRC теста F787C365
CRC копии F787C365
Точное извлечение (достоверность 24) [A8063F41] (AR v2)
Копирование... OK

20 трек(и) скопированы точно
1 трек(и) не удалось проверить на точность

Некоторые треки не прошли проверку на точность

Ошибок не произошло

Конец отчёта

==== Контрольная сумма отчёта 9EE7C3FA4D73DA7CD448C270EE8BE17FB982AA1FE0E7A2892407BD152531E61C ====

foobar2000 1.2 / Dynamic Range Meter 1.1.1
log date: 2015-10-03 17:30:54

Analyzed: Ash / The Album (Disc 1) (1) Blink 182 / The Album (Disc 1) (2) Creed / The Album (Disc 1) (3) Fatboy Slim / The Album (Disc 1) (4) Feeder / The Album (Disc 1) (5) Gorillaz / The Album (Disc 1) (6) JJ72 / The Album (Disc 1) (7) Manic Street Preachers / The Album (Disc 1) (8) Mansun / The Album (Disc 1) (9) Muse / The Album (Disc 1) (10) My Vitriol / The Album (Disc 1) (11) Placebo / The Album (Disc 1) (12) Radiohead / The Album (Disc 1) (13) Robbie Williams / The Album (Disc 1) (14) Roni Size & Reprazent / The Album (Disc 1) (15) Semisonic / The Album (Disc 1) (16) Soulwax / The Album (Disc 1) (17) Stereophonics / The Album (Disc 1) (18) Sunna / The Album (Disc 1) (19) Toploader / The Album (Disc 1) (20) Wheatus / The Album (Disc 1) (21)

DR Peak RMS Duration Track

DR7 -0.60 dB -8.63 dB 3:29 04-Burn Baby Burn
DR5 -0.98 dB -7.91 dB 2:49 14-All The Small Things
DR8 -0.18 dB -10.84 dB 3:29 09-With Arms Wide Open
DR11 -0.96 dB -13.16 dB 3:34 20-Star 69
DR6 -0.40 dB -7.77 dB 3:12 06-Buck Rogers
DR7 -0.52 dB -8.80 dB 3:44 01-Clint Eastwood
DR8 -0.50 dB -11.51 dB 3:39 11-Oxygen
DR8 -0.17 dB -10.45 dB 4:21 10-You Stole The Sun From My Heart
DR8 -0.10 dB -9.09 dB 4:19 17-I Can Only Disappoint U
DR7 -0.18 dB -8.96 dB 3:19 05-Plug In Baby
DR7 -0.18 dB -7.88 dB 3:49 13-Always: Your Way
DR6 -0.86 dB -8.63 dB 3:59 16-Taste In Men
DR6 -0.12 dB -7.35 dB 4:52 19-Optimistic
DR6 -0.16 dB -8.12 dB 4:05 07-Let Love Be Your Energy
DR6 -0.18 dB -7.61 dB 3:13 21-Dirty Beatz
DR7 -0.14 dB -9.52 dB 3:51 18-Closing Time
DR7 -0.68 dB -8.98 dB 3:27 12-Too Many DJs
DR6 -0.17 dB -7.86 dB 4:27 02-Mr. Writer
DR9 -0.32 dB -10.09 dB 3:37 15-I'm Not Trading
DR7 -0.18 dB -8.22 dB 3:48 08-Dancing In The Moonlight
DR8 -0.18 dB -10.48 dB 4:02 03-Teenage Dirtbag

Number of tracks: 21
Official DR value: DR7

Samplerate: 44100 Hz
Channels: 2
Bits per sample: 16
Bitrate: 1023 kbps
Codec: FLAC

Exact Audio Copy V1.0 beta 3 from 29. August 2011

Отчёт EAC об извлечении, выполненном 19. сентября 2015, 18:17

Various / The Album (Disc 2)

Дисковод: TSSTcorpCDDVDW SH-222BB Adapter: 3 ID: 0

Режим чтения : Достоверность
Использование точного потока : Да
Отключение кэша аудио : Да
Использование указателей C2 : Нет

Коррекция смещения при чтении : 6
Способность читать области Lead-in и Lead-out : Нет
Заполнение пропущенных сэмплов тишиной : Да
Удаление блоков с тишиной в начале и конце : Нет
При вычислениях CRC использовались нулевые сэмплы : Да
Интерфейс : Установленный внешний ASPI-интерфейс
Обработка зазоров
: Добавлено к предыдущему треку

Выходной формат : Пользовательский кодировщик
Выбранный битрейт : 128 kBit/s
Качество : Высокий
Добавление ID3-тега : Нет
Утилита сжатия : C:\Program Files\Exact Audio Copy\FLAC\FLAC.EXE
Дополнительные параметры : -V -8 -T "Genre=%genre%" -T "Artist=%artist%" -T "Title=%title%" -T "Album=%albumtitle%" -T "Date=%year%" -T "Tracknumber=%tracknr%" -T "Comment=%comment%" %source%

TOC извлечённого CD Трек | Старт | Длительность | Начальный сектор | Конечный сектор

1 | 0:00.00 | 4:31.52 | 0 | 20376
2 | 4:31.52 | 4:01.15 | 20377 | 38466
3 | 8:32.67 | 3:37.20 | 38467 | 54761
4 | 12:10.12 | 5:21.23 | 54762 | 78859
5 | 17:31.35 | 4:25.00 | 78860 | 98734
6 | 21:56.35 | 4:01.25 | 98735 | 116834
7 | 25:57.60 | 5:02.20 | 116835 | 139504
8 | 31:00.05 | 3:54.25 | 139505 | 157079
9 | 34:54.30 | 4:46.52 | 157080 | 178581
10 | 39:41.07 | 4:04.43 | 178582 | 196924
11 | 43:45.50 | 7:03.52 | 196925 | 228701
12 | 50:49.27 | 3:59.15 | 228702 | 246641
13 | 54:48.42 | 3:07.73 | 246642 | 260739
14 | 57:56.40 | 5:00.35 | 260740 | 283274
15 | 62:57.00 | 3:53.65 | 283275 | 300814
16 | 66:50.65 | 4:43.67 | 300815 | 322106
17 | 71:34.57 | 3:53.38 | 322107 | 339619
18 | 75:28.20 | 3:39.15 | 339620 | 356059

Трек 1 Имя файла I:\MOI_RAZDACI\VA The Album\VA.The.Album_2XCD_2001\CD-2\01. Coldplay - Trouble.wav Длина предзазора 0:00:02.00 Пиковый уровень 98.4 %
Скорость извлечения 1.8 X
Качество трека 99.9 %
CRC теста D34DFB2C
CRC копии D34DFB2C
Точное извлечение (достоверность 31) [9E6A204B] (AR v2)
Копирование... OK

Трек 2 Имя файла I:\MOI_RAZDACI\VA The Album\VA.The.Album_2XCD_2001\CD-2\02. Starsailor - Fever.wav Длина предзазора 0:00:00.27 Пиковый уровень 98.7 %
Скорость извлечения 2.2 X
Качество трека 100.0 %
CRC теста 646F62CF
CRC копии 646F62CF
Точное извлечение (достоверность 30) [F2315A6F] (AR v2)
Копирование... OK

Трек 3 Имя файла I:\MOI_RAZDACI\VA The Album\VA.The.Album_2XCD_2001\CD-2\03. Turin Breaks - The Door.wav Пиковый уровень 98.0 %
Скорость извлечения 2.3 X
Качество трека 100.0 %
CRC теста F64B5404
CRC копии F64B5404
Точное извлечение (достоверность 30) [C0C8BFCE] (AR v2)
Копирование... OK

Трек 4 Имя файла I:\MOI_RAZDACI\VA The Album\VA.The.Album_2XCD_2001\CD-2\04. Richard Ashcroft - A Song For The Lovers.wav Пиковый уровень 98.0 %
Скорость извлечения 2.6 X
Качество трека 100.0 %
CRC теста CD60D68A
CRC копии CD60D68A
Точное извлечение (достоверность 30) [17B3823B] (AR v2)
Копирование... OK

Трек 5 Имя файла I:\MOI_RAZDACI\VA The Album\VA.The.Album_2XCD_2001\CD-2\05. Supergrass - Moving.wav Пиковый уровень 98.0 %
Скорость извлечения 2.7 X
Качество трека 100.0 %
CRC теста 933C8D04
CRC копии 933C8D04
Точное извлечение (достоверность 29) [A94F06F4] (AR v2)
Копирование... OK

Трек 6 Имя файла I:\MOI_RAZDACI\VA The Album\VA.The.Album_2XCD_2001\CD-2\06. Badly Drawn Boy - Once Around The Block.wav Длина предзазора 0:00:00.32 Пиковый уровень 97.9 %
Скорость извлечения 2.2 X
Качество трека 99.9 %
CRC теста 60C8B8D5
CRC копии 60C8B8D5
Точное извлечение (достоверность 30) [0BE495DE] (AR v2)
Копирование... OK

Трек 7 Имя файла I:\MOI_RAZDACI\VA The Album\VA.The.Album_2XCD_2001\CD-2\07. Blur - Coffee And TV.wav Длина предзазора 0:00:01.72 Пиковый уровень 98.5 %
Скорость извлечения 3.0 X
Качество трека 100.0 %
CRC теста F5706A74
CRC копии F5706A74
Точное извлечение (достоверность 30) [A2D3D300] (AR v2)
Копирование... OK

Трек 8 Имя файла I:\MOI_RAZDACI\VA The Album\VA.The.Album_2XCD_2001\CD-2\08. Divine Comedy - Love What You Do.wav Пиковый уровень 98.1 %
Скорость извлечения 3.1 X
Качество трека 100.0 %
CRC теста 635BEB88
CRC копии 635BEB88
Точное извлечение (достоверность 30) [14AE3889] (AR v2)
Копирование... OK

Трек 9 Имя файла I:\MOI_RAZDACI\VA The Album\VA.The.Album_2XCD_2001\CD-2\09. Doves - Catch The Sun.wav Пиковый уровень 98.0 %
Скорость извлечения 3.3 X
Качество трека 100.0 %
CRC теста 79D9C94A
CRC копии 79D9C94A
Точное извлечение (достоверность 30) [5EDD8B8A] (AR v2)
Копирование... OK

Трек 10 Имя файла I:\MOI_RAZDACI\VA The Album\VA.The.Album_2XCD_2001\CD-2\10. Alabama 3 - Woke Up This Morning.wav Длина предзазора 0:00:00.09 Пиковый уровень 93.2 %
Скорость извлечения 3.3 X
Качество трека 100.0 %
CRC теста D5082B29
CRC копии D5082B29
Точное извлечение (достоверность 30) [14F2E9D6] (AR v2)
Копирование... OK

Трек 11 Имя файла I:\MOI_RAZDACI\VA The Album\VA.The.Album_2XCD_2001\CD-2\11. Gomez - Tijuana Lady.wav Длина предзазора 0:00:00.10 Пиковый уровень 98.5 %
Скорость извлечения 3.7 X
Качество трека 100.0 %
CRC теста FBD47E74
CRC копии FBD47E74
Точное извлечение (достоверность 28) [3052B758] (AR v2)
Копирование... OK

Трек 12 Имя файла I:\MOI_RAZDACI\VA The Album\VA.The.Album_2XCD_2001\CD-2\12. Air - All I Need.wav Длина предзазора 0:00:00.22 Пиковый уровень 96.6 %
Скорость извлечения 3.6 X
Качество трека 100.0 %
CRC теста 3D17756C
CRC копии 3D17756C
Точное извлечение (достоверность 29) [31F23B06] (AR v2)
Копирование... OK

Трек 13 Имя файла I:\MOI_RAZDACI\VA The Album\VA.The.Album_2XCD_2001\CD-2\13. Kings Of Convenience - Toxic Girl.wav Пиковый уровень 98.4 %
Скорость извлечения 3.5 X
Качество трека 100.0 %
CRC теста 0BB1F664
CRC копии 0BB1F664
Точное извлечение (достоверность 29) [09092A30] (AR v2)
Копирование... OK

Трек 14 Имя файла I:\MOI_RAZDACI\VA The Album\VA.The.Album_2XCD_2001\CD-2\14. Grandaddy - The Crystal Lake.wav Длина предзазора 0:00:00.46 Пиковый уровень 98.0 %
Скорость извлечения 2.9 X
Качество трека 99.9 %
CRC теста 6376BCE7
CRC копии 6376BCE7
Точное извлечение (достоверность 30) [5D47323E] (AR v2)
Копирование... OK

Трек 15 Имя файла I:\MOI_RAZDACI\VA The Album\VA.The.Album_2XCD_2001\CD-2\15. David Gray - Late Night Radio.wav Длина предзазора 0:00:00.06 Пиковый уровень 98.4 %
Скорость извлечения 3.9 X
Качество трека 100.0 %
CRC теста 0DB4C51E
CRC копии 0DB4C51E
Точное извлечение (достоверность 29) [53682248] (AR v2)
Копирование... OK

Трек 16 Имя файла I:\MOI_RAZDACI\VA The Album\VA.The.Album_2XCD_2001\CD-2\16. Neil Finn - Wherever You Are.wav Длина предзазора 0:00:00.60 Пиковый уровень 98.0 %
Скорость извлечения 4.0 X
Качество трека 100.0 %
CRC теста 5B93D751
CRC копии 5B93D751
Точное извлечение (достоверность 28) [E6922A56] (AR v2)
Копирование... OK

Трек 17 Имя файла I:\MOI_RAZDACI\VA The Album\VA.The.Album_2XCD_2001\CD-2\17. Alfie - Bookends.wav Длина предзазора 0:00:00.06 Пиковый уровень 98.5 %
Скорость извлечения 4.0 X
Качество трека 100.0 %
CRC теста 93031CE4
CRC копии 93031CE4
Точное извлечение (достоверность 30) [5CEF2B95] (AR v2)
Копирование... OK

Трек 18 Имя файла I:\MOI_RAZDACI\VA The Album\VA.The.Album_2XCD_2001\CD-2\18. Elbow - Red.wav Длина предзазора 0:00:00.64 Пиковый уровень 98.0 %
Скорость извлечения 4.1 X
Качество трека 100.0 %
CRC теста 59A2B0CA
CRC копии 59A2B0CA
Точное извлечение (достоверность 28) [1DFB6643] (AR v2)
Копирование... OK

Все треки извлечены точно

Ошибок не произошло

Конец отчёта

==== Контрольная сумма отчёта 9D6B0108DF9497D5E2C879CC0FE3459AD1BD4E990DF979B425E1C6C9923855CA ====

foobar2000 1.2 / Dynamic Range Meter 1.1.1
log date: 2015-10-03 17:31:16

Analyzed: Air / The Album (Disc 2) (1) Alabama 3 / The Album (Disc 2) (2) Alfie / The Album (Disc 2) (3) Badly Drawn Boy / The Album (Disc 2) (4) Blur / The Album (Disc 2) (5) Coldplay / The Album (Disc 2) (6) David Gray / The Album (Disc 2) (7) Divine Comedy / The Album (Disc 2) (8) Doves / The Album (Disc 2) (9) Elbow / The Album (Disc 2) (10) Gomez / The Album (Disc 2) (11) Grandaddy / The Album (Disc 2) (12) Kings Of Convenience / The Album (Disc 2) (13) Neil Finn / The Album (Disc 2) (14) Richard Ashcroft / The Album (Disc 2) (15) Starsailor / The Album (Disc 2) (16) Supergrass / The Album (Disc 2) (17) Turin Breaks / The Album (Disc 2) (18)

DR Peak RMS Duration Track

DR8 -0.29 dB -10.08 dB 3:59 12-All I Need
DR7 -0.61 dB -9.46 dB 4:05 10-Woke Up This Morning
DR8 -0.12 dB -13.00 dB 3:54 17-Bookends
DR7 -0.18 dB -10.39 dB 4:01 06-Once Around The Block
DR8 -0.12 dB -9.07 dB 5:02 07-Coffee And TV
DR6 -0.13 dB -9.04 dB 4:32 01-Trouble
DR10 -0.14 dB -11.12 dB 3:54 15-Late Night Radio
DR6 -0.16 dB -7.62 dB 3:54 08-Love What You Do
DR7 -0.18 dB -8.51 dB 4:47 09-Catch The Sun
DR7 -0.18 dB -10.23 dB 3:39 18-Red
DR10 -0.13 dB -13.72 dB 7:04 11-Tijuana Lady
DR7 -0.18 dB -9.13 dB 5:00 14-The Crystal Lake
DR7 -0.13 dB -9.92 dB 3:08 13-Toxic Girl
DR7 -0.17 dB -8.72 dB 4:44 16-Wherever You Are
DR7 -0.17 dB -8.52 dB 5:21 04-A Song For The Lovers
DR8 -0.11 dB -10.15 dB 4:01 02-Fever
DR8 -0.17 dB -9.89 dB 4:25 05-Moving
DR9 -0.18 dB -10.98 dB 3:37 03-The Door

Number of tracks: 18
Official DR value: DR8

Samplerate: 44100 Hz
Channels: 2
Bits per sample: 16
Bitrate: 898 kbps
Codec: FLAC

VA - The Album (2001) 2CD

VA - The Album (2001) 2CD

All thanks to original releaser - stas64
Password: designol

DOWNLOAD LINKS
(Premium Recommended)


Links are Interchangeable - No Password - Single Extraction

Direct Download

VA - The Album (2001) 2CD Download via Hotfile Rapidshare Fileserve Megaupload & FileSonic, VA - The Album (2001) 2CD free torrent downloads included crack, serial, keygen.


Attention!Information

Members of Guest cannot leave comments.