VA - The Reading Room (2000)

Download Now

VA - The Reading Room (2000)

VA - The Reading Room (2000)
EAC Rip | FLAC (Img) + Cue + Log ~ 511 Mb | MP3 CBR320 ~ 179 Mb
Scans (JPG, 300 dpi) ~ 60 Mb | RAR 5% Recovery
Progressive Rock | LaBraD'or Records #LBD 040007

"Dutch concept compilation album with exclusive songs from many interesting prog bands Aragon, Brassé, Cliffhanger, Final Conflict, Galahad, Galleon, Jacob's Dream, Like Wendy, Maryson, The Night Watch. Directed by Marc Brassé, each band was asked to write and record a new song and together, they form a story... a musical adventure around a number of paintings in a room. An interesting visit for all neo prog lovers..."

Prog Archives | Discogs
***************

VA - The Reading Room (2000)

Track List:

01. Brasse - The Reading Room [10:12]
02. Galleon - The Private Space [08:10]
03. The Night Watch - Silent Land [06:55]
04. Aragon - The Last Supper [08:03]
05. Like Wendy - The Empress [06:33]
06. Final Conflict - The Janus [07:49]
07. Maryson - Aiden [10:19]
08. Galahad - The Pleasure House [09:47]
09. Jacob's Ladder - Searching [04:13]
10. Cliffhanger - Getting The Picture [02:29]

Total time: 74:25

Exact Audio Copy V1.1 from 23. June 2015

EAC extraction logfile from 28. August 2015, 21:32

Various Artists / The Reading Room

Used drive : TEAC CD-W516EB Adapter: 1 ID: 1

Read mode : Secure
Utilize accurate stream : Yes
Defeat audio cache : Yes
Make use of C2 pointers : No

Read offset correction

: 685
Overread into Lead-In and Lead-Out : No
Fill up missing offset samples with silence : Yes
Delete leading and trailing silent blocks : No
Null samples used in CRC calculations : Yes
Used interface
: Native Win32 interface for Win NT & 2000

Used output format : User Defined Encoder
Selected bitrate : 1024 kBit/s
Quality : High
Add ID3 tag : Yes
Command line compressor : C:\Program Files (x86)\FLAC_1.3.1\win64\flac.exe
Additional command line options : -6 -V -T "ARTIST=%artist%" -T "TITLE=%title%" -T "ALBUM=%albumtitle%" -T "DATE=%year%" -T "TRACKNUMBER=%tracknr%" -T "GENRE=%genre%" -T "COMMENT=ripped by wurensh for rutracker.org" %source% -o %dest%

TOC of the extracted CD Track | Start | Length | Start sector | End sector
--1 | 0:00.00 | 10:11.40 | 0 | 45864 2 | 10:11.40 | 8:09.25 | 45865 | 82564 3 | 18:20.65 | 6:54.61 | 82565 | 113675 4 | 25:15.51 | 8:02.56 | 113676 | 149881 5 | 33:18.32 | 6:32.28 | 149882 | 179309 6 | 39:50.60 | 7:48.18 | 179310 | 214427 7 | 47:39.03 | 10:18.56 | 214428 | 260833 8 | 57:57.59 | 9:46.29 | 260834 | 304812 9 | 67:44.13 | 4:12.14 | 304813 | 323726
10 | 71:56.27 | 2:28.49 | 323727 | 334875

Range status and errors

Selected range Filename Y:\EAC\wurensh\The Reading Room\Various Artists - The Reading Room.wav Peak level 97.7 %
Extraction speed 7.8 X
Range quality 100.0 %
Test CRC 253C5647
Copy CRC 253C5647
Copy OK

No errors occurred


AccurateRip summary

Track 1 accurately ripped (confidence 3) [4FA3FF00] (AR v2)
Track 2 accurately ripped (confidence 3) [3B8A39D9] (AR v2)
Track 3 accurately ripped (confidence 3) [DB435DD9] (AR v2)
Track 4 accurately ripped (confidence 3) 91582DD (AR v2)
Track 5 accurately ripped (confidence 3) [D9EF4B9C] (AR v2)
Track 6 accurately ripped (confidence 3) [0F7D7B0A] (AR v2)
Track 7 accurately ripped (confidence 3) [19BE0B69] (AR v2)
Track 8 accurately ripped (confidence 3) [149BCFFA] (AR v2)
Track 9 accurately ripped (confidence 3) [D4DD9708] (AR v2)
Track 10 accurately ripped (confidence 3) [D60C62D5] (AR v2)

All tracks accurately ripped

End of status report

- CUETools DB Plugin V2.1.6

[CTDB TOCID: Py9jblxdIv4mlTWQo34x67UWeXQ-] found
Submit result: Py9jblxdIv4mlTWQo34x67UWeXQ- has been confirmed
Track | CTDB Status
1 | (1/1) Accurately ripped
2 | (1/1) Accurately ripped
3 | (1/1) Accurately ripped
4 | (1/1) Accurately ripped
5 | (1/1) Accurately ripped
6 | (1/1) Accurately ripped
7 | (1/1) Accurately ripped
8 | (1/1) Accurately ripped
9 | (1/1) Accurately ripped
10 | (1/1) Accurately ripped

==== Log checksum A1DA0E99C1E5A0E29497C2F95F373A4CDD9B5DB486BAC67215DA10A7C184A3DF ====

foobar2000 1.2.6 / Dynamic Range Meter 1.1.1
log date: 2015-10-03 16:22:46

Analyzed: Brasse / The Reading Room (1) Cliffhanger / The Reading Room (2)

DR Peak RMS Duration Track

DR7 -0.30 dB -10.13 dB 10:12 01-The Reading Room
DR11 -0.30 dB -12.16 dB 2:29 10-Getting The Picture

Number of tracks: 2
Official DR value: DR9

Samplerate: 44100 Hz
Channels: 2
Bits per sample: 16
Bitrate: 914 kbps
Codec: FLAC

Analyzed: Final Conflict / The Reading Room (1) Galahad / The Reading Room (2)

DR Peak RMS Duration Track

DR8 -0.30 dB -9.60 dB 7:48 06-The Janus
DR8 -0.30 dB -10.51 dB 9:46 08-The Pleasure House

Number of tracks: 2
Official DR value: DR8

Samplerate: 44100 Hz
Channels: 2
Bits per sample: 16
Bitrate: 914 kbps
Codec: FLAC

Analyzed: Galleon / The Reading Room (1) Jacob's Ladder / The Reading Room (2)

DR Peak RMS Duration Track

DR6 -0.20 dB -8.91 dB 8:09 02-The Private Space
DR8 -0.30 dB -11.92 dB 4:12 09-Searching

Number of tracks: 2
Official DR value: DR7

Samplerate: 44100 Hz
Channels: 2
Bits per sample: 16
Bitrate: 914 kbps
Codec: FLAC

Analyzed: Like Wendy / The Reading Room (1) Maryson / The Reading Room (2)

DR Peak RMS Duration Track

DR8 -0.30 dB -9.70 dB 6:32 05-The Empress
DR10 -0.30 dB -13.35 dB 10:19 07-Aiden

Number of tracks: 2
Official DR value: DR9

Samplerate: 44100 Hz
Channels: 2
Bits per sample: 16
Bitrate: 914 kbps
Codec: FLAC

Statistics for: 03-Silent Land
Number of samples: 18293268
Duration: 6:55
Left Right

Peak Value: -0.30 dB -0.30 dB
Avg RMS: -11.86 dB -12.29 dB
DR channel: 8.14 dB 8.86 dB

Official DR Value: DR9

Samplerate: 44100 Hz
Channels: 2
Bits per sample: 16
Bitrate: 914 kbps
Codec: FLAC

foobar2000 1.2.6 / Dynamic Range Meter 1.1.1
log date: 2015-10-03 16:22:42

Statistics for: 04-The Last Supper
Number of samples: 21289128
Duration: 8:03
Left Right

Peak Value: -0.30 dB -0.30 dB
Avg RMS: -10.07 dB -9.68 dB
DR channel: 6.66 dB 6.18 dB

Official DR Value: DR6

Samplerate: 44100 Hz
Channels: 2
Bits per sample: 16
Bitrate: 914 kbps
Codec: FLAC

[CUETools log; Date: 03.10.2015 16:22:57; Version: 2.1.5]
[CTDB TOCID: Py9jblxdIv4mlTWQo34x67UWeXQ-] found.
Track | CTDB Status
1 | (2/2) Accurately ripped
2 | (2/2) Accurately ripped
3 | (2/2) Accurately ripped
4 | (2/2) Accurately ripped
5 | (2/2) Accurately ripped
6 | (2/2) Accurately ripped
7 | (2/2) Accurately ripped
8 | (2/2) Accurately ripped
9 | (2/2) Accurately ripped
10 | (2/2) Accurately ripped
[AccurateRip ID: 001eab78-00f22d3b-7811710a] found.
Track [ CRC | V2 ] Status
01 [2466d223|4fa3ff00] (0+3/3) Accurately ripped
02 [c31c8330|3b8a39d9] (0+3/3) Accurately ripped
03 [fa41560e|db435dd9] (0+3/3) Accurately ripped
04 [268b404d|b91582dd] (0+3/3) Accurately ripped
05 [96468f25|d9ef4b9c] (0+3/3) Accurately ripped
06 [3dc1d5bb|0f7d7b0a] (0+3/3) Accurately ripped
07 [e33fbf7e|19be0b69] (0+3/3) Accurately ripped
08 [8f366c93|149bcffa] (0+3/3) Accurately ripped
09 [c99304bd|d4dd9708] (0+3/3) Accurately ripped
10 [77f46a9e|d60c62d5] (0+3/3) Accurately ripped

Track Peak [ CRC32 ] [W/O NULL] [ LOG ]
-- 97,7 [253C5647] [D43128FE] CRC32
01 96,6 [0307056C] [E35FB587]
02 97,7 [4A11E446] [01E7104A]
03 96,6 [FC0AD6F5] [0F4BF3D9]
04 96,6 [350C73E9] [458ABD91]
05 96,6 [AC8A4147] [4076D4FD]
06 96,6 [78EDB1D0] [DBA5E205]
07 96,6 [1A12D424] [4657530E]
08 96,6 [2C40A514] 8E5360E
09 96,6 [FC3F00DB] [A1E6F0EF]
10 96,6 [C29CBD25] 6E70931

VA - The Reading Room (2000)


DOWNLOAD LINKS:
Buy Premium To Support Me & Get Resumable Support & Max Speed


Links are Interchangeable - No Password - Single Extraction

Direct Download

Tags: Reading

VA - The Reading Room (2000) Download via Hotfile Rapidshare Fileserve Megaupload & FileSonic, VA - The Reading Room (2000) free torrent downloads included crack, serial, keygen.


Attention!Information

Members of Guest cannot leave comments.