Sam Most - Musically Yours (1956) {2014 Japan Bethlehem Album Collection 1000}

Download Now


Sam Most - Musically Yours (1956) {2014 Japan Bethlehem Album Collection 1000}
Sam Most - Musically Yours (1956) {2014 Japan Bethlehem Album Collection 1000}
EAC rip (secure mode) | FLAC (tracks)+CUE+LOG -> 163 Mb | MP3 @320 -> 102 Mb
Full Artwork @ 600 dpi (png) -> 226 Mb | 5% repair rar
© 2014 Solid Records / Bethlehem | CDSOL-6142 | LP BCP-6008
Jazz / Cool / Bop / Flute

"One of the loosest, most relaxed albums ever from flute man Sam Most - cut with a cool quartet that also features Bob Dorough on piano, Bill Crow on bass, and Joe Morello on drums! The inventive touches of all the rhythm players are really felt strongly - creating these modern moments that really have Sam stretching out on his instrument, and moving it way past any cliches of a few years before. Most handles flute on almost all the tracks, but also throws in some great clarinet as well - with archly-crafted solos that really swing, but with kind of an arch modernist tone - in the manner of some of Jimmy Giuffre's best rhythm-bound work of the 50s. Titles include "Obvious Conclusion", "Stella By Starlight", "Two For Three", and "House Of Bread Blues"."

Sam Most - Musically Yours (1956) {2014 Japan Bethlehem Album Collection 1000}


Personnel:
Sam Most - flute and clarinet
Bob Dorough - piano
Bill Crow - bass
Joe Morello - drums

Sam Most - Musically Yours (1956) {2014 Japan Bethlehem Album Collection 1000}


tracklist:
01 - Stella By Starlight
02 - Hush-A-Bye
03 - Obvious Conclusion
04 - Autumn Leaves
05 - If I Had You
06 - Body And Soul
07 - House Of Bread Blues
08 - Two For Three

Exact Audio Copy V1.1 from 23. June 2015

EAC extraction logfile from 19. September 2015, 7:33

Sam Most / Musically Yours

Used drive : TSSTcorpCDDVDW SE-208DB Adapter: 7 ID: 0

Read mode : Secure
Utilize accurate stream : Yes
Defeat audio cache : Yes
Make use of C2 pointers : No

Read offset correction

: 6
Overread into Lead-In and Lead-Out : No
Fill up missing offset samples with silence : Yes
Delete leading and trailing silent blocks : No
Null samples used in CRC calculations : Yes
Used interface
: Installed external ASPI interface
Gap handling
: Appended to previous track

Used output format : User Defined Encoder
Selected bitrate : 1024 kBit/s
Quality : High
Add ID3 tag : No
Command line compressor : C:\Program Files (x86)\FLAC Frontend\tools\flac.exe
Additional command line options : -8 -V -T "ARTIST=%artist%" -T "TITLE=%title%" -T "ALBUM=%albumtitle%" -T "DATE=%year%" -T "TRACKNUMBER=%tracknr%" -T "TOTALTRACKS=%numtracks%" -T "GENRE=%genre%" -T "ALBUMARTIST=%albumartist%" -T "ALBUM ARTIST=%albumartist%" -T "COMMENT=EAC Secure Mode, Test & Copy, AccurateRip, FLAC -8" %source%

TOC of the extracted CD Track | Start | Length | Start sector | End sector
--1 | 0:00.00 | 5:56.06 | 0 | 26705 2 | 5:56.06 | 7:01.42 | 26706 | 58322 3 | 12:57.48 | 4:57.62 | 58323 | 80659 4 | 17:55.35 | 4:48.02 | 80660 | 102261 5 | 22:43.37 | 4:57.37 | 102262 | 124573 6 | 27:40.74 | 4:53.09 | 124574 | 146557 7 | 32:34.08 | 5:18.53 | 146558 | 170460 8 | 37:52.61 | 5:10.31 | 170461 | 193741

Track 1 Filename M:\_EAC\Sam Most - Musically Yours (1956) [FLAC] {2014 Japan Bethlehem Album Collection 1000}\01 - Stella By Starlight.wav Pre-gap length 0:00:02.00 Peak level 98.2 %
Extraction speed 2.6 X
Track quality 100.0 %
Test CRC 448610DA
Copy CRC 448610DA
Accurately ripped (confidence 1) [CAC93D3E] (AR v2)
Copy OK

Track 2 Filename M:\_EAC\Sam Most - Musically Yours (1956) [FLAC] {2014 Japan Bethlehem Album Collection 1000}\02 - Hush-A-Bye.wav Peak level 98.2 %
Extraction speed 3.2 X
Track quality 100.0 %
Test CRC 4E1E3E41
Copy CRC 4E1E3E41
Accurately ripped (confidence 1) [823C4F1A] (AR v2)
Copy OK

Track 3 Filename M:\_EAC\Sam Most - Musically Yours (1956) [FLAC] {2014 Japan Bethlehem Album Collection 1000}\03 - Obvious Conclusion.wav Peak level 98.2 %
Extraction speed 2.9 X
Track quality 99.9 %
Test CRC 536AB700
Copy CRC 536AB700
Accurately ripped (confidence 1) [573C3FD3] (AR v2)
Copy OK

Track 4 Filename M:\_EAC\Sam Most - Musically Yours (1956) [FLAC] {2014 Japan Bethlehem Album Collection 1000}\04 - Autumn Leaves.wav Peak level 98.2 %
Extraction speed 3.7 X
Track quality 100.0 %
Test CRC A0C9E8DA
Copy CRC A0C9E8DA
Accurately ripped (confidence 1) [A34FF217] (AR v2)
Copy OK

Track 5 Filename M:\_EAC\Sam Most - Musically Yours (1956) [FLAC] {2014 Japan Bethlehem Album Collection 1000}\05 - If I Had You.wav Peak level 98.3 %
Extraction speed 3.4 X
Track quality 99.9 %
Test CRC 5098D274
Copy CRC 5098D274
Accurately ripped (confidence 1) [DF146F81] (AR v2)
Copy OK

Track 6 Filename M:\_EAC\Sam Most - Musically Yours (1956) [FLAC] {2014 Japan Bethlehem Album Collection 1000}\06 - Body And Soul.wav Peak level 98.2 %
Extraction speed 3.5 X
Track quality 99.9 %
Test CRC 34CAD373
Copy CRC 34CAD373
Accurately ripped (confidence 1) [25815F04] (AR v2)
Copy OK

Track 7 Filename M:\_EAC\Sam Most - Musically Yours (1956) [FLAC] {2014 Japan Bethlehem Album Collection 1000}\07 - House Of Bread Blues.wav Peak level 98.2 %
Extraction speed 3.8 X
Track quality 99.9 %
Test CRC 49433B5B
Copy CRC 49433B5B
Accurately ripped (confidence 1) [DFC4B979] (AR v2)
Copy OK

Track 8 Filename M:\_EAC\Sam Most - Musically Yours (1956) [FLAC] {2014 Japan Bethlehem Album Collection 1000}\08 - Two For Three.wav Peak level 98.2 %
Extraction speed 3.9 X
Track quality 99.9 %
Test CRC A29FFD13
Copy CRC A29FFD13
Accurately ripped (confidence 1) [6AB0803B] (AR v2)
Copy OK

All tracks accurately ripped

No errors occurred

End of status report

==== Log checksum 4D148C761ED98B1381491459A9EEE0E0477B837924B2F572513E76A2D9DF90A9 ====

Sam Most - Musically Yours (1956) {2014 Japan Bethlehem Album Collection 1000}

Sam Most - Musically Yours (1956) {2014 Japan Bethlehem Album Collection 1000}

(All below links are interchangable. No password)
Buy Premium To Support Me & Get Resumable Support & Max Speed


Direct Download

Tags: Musically, Bethlehem, Collection

Sam Most - Musically Yours (1956) {2014 Japan Bethlehem Album Collection 1000} Download via Hotfile Rapidshare Fileserve Megaupload & FileSonic, Sam Most - Musically Yours (1956) {2014 Japan Bethlehem Album Collection 1000} free torrent downloads included crack, serial, keygen.


Attention!Information

Members of Guest cannot leave comments.