Public Image Ltd. - 9 (1988) [2015, Universal Music Japan, 77455]

Download Now

Public Image Ltd. - 9 (1988) [2015, Universal Music Japan, 77455]

Public Image Ltd. - 9 (1988)
EAC | Flac(Image) + Cue + Log & MP3 CBR 320Kbps
Universal Music Japan, UICY-77455 | ~ 306 or 104 Mb | Scans(png) -> 125 Mb
Alternative Rock / Post Punk

"9 features essentially the same group of characters found on Happy?, with only Lu Edmonds having left the fold (though he did contribute to the writing on each song). Seven studio albums, seven lineups -- Lydon failed yet again to keep the same people together for more than one record..."


Tracklist:

01 Happy
02 Disappointed
03 Warrior
04 U.S.L.S. 1
05 Sand Castles In The Snow
06 Worry
07 Brave New World
08 Like That
09 Same Old Story
10 Armada

Exact Audio Copy V1.1 from 23. June 2015

EAC extraction logfile from 20. September 2015, 17:56

PiL / 9 SHM-CD

Used drive : PLEXTOR BD-R PX-B950SA Adapter: 1 ID: 1

Read mode : Secure
Utilize accurate stream : Yes
Defeat audio cache : Yes
Make use of C2 pointers : No

Read offset correction

: 6
Overread into Lead-In and Lead-Out : No
Fill up missing offset samples with silence : Yes
Delete leading and trailing silent blocks : No
Null samples used in CRC calculations : Yes
Used interface
: Native Win32 interface for Win NT & 2000

Used output format : Internal WAV Routines
Sample format : 44.100 Hz; 16 Bit; Stereo

TOC of the extracted CD Track | Start | Length | Start sector | End sector
--1 | 0:00.00 | 3:58.34 | 0 | 17883 2 | 3:58.34 | 5:34.09 | 17884 | 42942 3 | 9:32.43 | 4:18.46 | 42943 | 62338 4 | 13:51.14 | 5:36.63 | 62339 | 87601 5 | 19:28.02 | 3:41.46 | 87602 | 104222 6 | 23:09.48 | 3:55.05 | 104223 | 121852 7 | 27:04.53 | 4:19.57 | 121853 | 141334 8 | 31:24.35 | 3:41.35 | 141335 | 157944 9 | 35:05.70 | 4:18.44 | 157945 | 177338
10 | 39:24.39 | 4:46.69 | 177339 | 198857

Range status and errors

Selected range Filename C:\Users\Meijin\Desktop\ALLexxess\PiL\1989 9 (Mini LP SHM-CD Universal Japan 2015)\PiL - 9 SHM-CD.wav Peak level 98.1 %
Extraction speed 6.7 X
Range quality 100.0 %
Test CRC 438CC678
Copy CRC 438CC678
Copy OK

No errors occurred


AccurateRip summary

Track 1 cannot be verified as accurate (confidence 6) [9232731A], AccurateRip returned DE1F66F (AR v2)
Track 2 cannot be verified as accurate (confidence 6) EDEE43B, AccurateRip returned [78C24243] (AR v2)
Track 3 cannot be verified as accurate (confidence 6) [19B5CB7E], AccurateRip returned [DFD58FAD] (AR v2)
Track 4 cannot be verified as accurate (confidence 6) [E0D55B3B], AccurateRip returned [3D3BC1FA] (AR v2)
Track 5 cannot be verified as accurate (confidence 6) [EA35DD78], AccurateRip returned [7DF544C6] (AR v2)
Track 6 cannot be verified as accurate (confidence 6) [E32315EC], AccurateRip returned [94C30A16] (AR v2)
Track 7 cannot be verified as accurate (confidence 6) [E5711B9C], AccurateRip returned [8FD48924] (AR v2)
Track 8 cannot be verified as accurate (confidence 6) [3536816B], AccurateRip returned [CB1AA568] (AR v2)
Track 9 cannot be verified as accurate (confidence 6) [3F3EC860], AccurateRip returned [569791BE] (AR v2)
Track 10 cannot be verified as accurate (confidence 6) [A5EC6649], AccurateRip returned [0E704AE8] (AR v2)

No tracks could be verified as accurate
You may have a different pressing from the one(s) in the database

End of status report

- CUETools DB Plugin V2.1.6

[CTDB TOCID: a4TOQSkmt_6Ax9Zf9ceFco_5CX0-] found
Submit result: a4TOQSkmt_6Ax9Zf9ceFco_5CX0- has been confirmed
Track | CTDB Status
1 | (5/5) Accurately ripped
2 | (5/5) Accurately ripped
3 | (5/5) Accurately ripped
4 | (5/5) Accurately ripped
5 | (5/5) Accurately ripped
6 | (5/5) Accurately ripped
7 | (5/5) Accurately ripped
8 | (5/5) Accurately ripped
9 | (5/5) Accurately ripped
10 | (5/5) Accurately ripped

==== Log checksum 65FE968D908EDEE3A08DCD841FD93306A481CD312A06483BC57EC646EC55534F ====

foobar2000 1.2.9 / Dynamic Range Meter 1.1.1
log date: 2015-10-05 13:03:45

Analyzed: PiL / 9 SHM-CD

DR Peak RMS Duration Track

DR13 -0.17 dB -14.66 dB 3:58 01-Happy
DR11 -0.17 dB -12.66 dB 5:34 02-Disappointed
DR13 -0.17 dB -15.02 dB 4:19 03-Warrior
DR13 -0.17 dB -14.57 dB 5:37 04-U.S.L.S. 1
DR13 -0.17 dB -14.73 dB 3:42 05-Sand Castles In The Snow
DR13 -0.17 dB -15.82 dB 3:55 06-Worry
DR13 -0.17 dB -14.59 dB 4:20 07-Brave New World
DR13 -0.17 dB -13.63 dB 3:41 08-Like That
DR12 -0.17 dB -13.36 dB 4:19 09-Same Old Story
DR12 -0.17 dB -14.63 dB 4:47 10-Armada

Number of tracks: 10
Official DR value: DR13

Samplerate: 44100 Hz
Channels: 2
Bits per sample: 16
Bitrate: 937 kbps
Codec: FLAC

CUETools log; Date: 05.10.2015 12:59:12; Version: 2.1.4]
[CTDB TOCID: a4TOQSkmt_6Ax9Zf9ceFco_5CX0-] found.
Track | CTDB Status
1 | (6/6) Accurately ripped
2 | (6/6) Accurately ripped
3 | (6/6) Accurately ripped
4 | (6/6) Accurately ripped
5 | (6/6) Accurately ripped
6 | (6/6) Accurately ripped
7 | (6/6) Accurately ripped
8 | (6/6) Accurately ripped
9 | (6/6) Accurately ripped
10 | (6/6) Accurately ripped
[AccurateRip ID: 0010f901-0086f016-7e0a5b0a] found.
Track [ CRC | V2 ] Status
01 [0b97b727|9232731a] (0+0/6) No match
02 [5f4cad21|bedee43b] (0+0/6) No match
03 [2cc4ff53|19b5cb7e] (0+0/6) No match
04 [5f59639f|e0d55b3b] (0+0/6) No match
05 [d954c932|ea35dd78] (0+0/6) No match
06 [a28d1df1|e32315ec] (0+0/6) No match
07 [4a908e9b|e5711b9c] (0+0/6) No match
08 [3c1820a2|3536816b] (0+0/6) No match
09 a206ec1|3f3ec860 (0+0/6) No match
10 [28518749|a5ec6649] (0+0/6) No match
Offsetted by -12:
01 [338896e7] (0/6) No match (V2 was not tested)
02 [13ef3eed] (0/6) No match (V2 was not tested)
03 [f18a1c55] (0/6) No match (V2 was not tested)
04 9f77baf (0/6) No match (V2 was not tested)
05 [6e3c2eff] (0/6) No match (V2 was not tested)
06 [507bdae6] (0/6) No match (V2 was not tested)
07 [f0d90653] (0/6) No match (V2 was not tested)
08 [d574e6ca] (0/6) No match (V2 was not tested)
09 [cd6f8405] (0/6) No match (V2 was not tested)
10 [8c58d68d] (0/6) No match (V2 was not tested)

Track Peak [ CRC32 ] [W/O NULL] [ LOG ]
-- 98,1 [438CC678] [3AB3702B] CRC32
01 98,1 [304EF80B] [CBD9693B]
02 98,1 [7BC08AD8] [145D40C5]
03 98,0 [5063CEAF] [37948A03]
04 98,0 [19CE025C] [8491740B]
05 98,1 [6BDCA17C] [C0DBE0CB]
06 98,0 [45632594] [6E3C43E0]
07 98,0 [4D67F33D] [8A8FB296]
08 98,0 [7A6E73EC] [23CE5756]
09 98,0 4A7865F [D3BBA783]
10 98,0 [49A9C386] [CE150CCF]

Public Image Ltd. - 9 (1988) [2015, Universal Music Japan, 77455]

All thanks go to ALLexxess



Download Public Image Ltd. - 9 (1988):

DOWNLOAD
(Premium Recommended)


All above links are interchangable. No password

Direct Download

Tags: Public, Universal

Public Image Ltd. - 9 (1988) [2015, Universal Music Japan, 77455] Download via Hotfile Rapidshare Fileserve Megaupload & FileSonic, Public Image Ltd. - 9 (1988) [2015, Universal Music Japan, 77455] free torrent downloads included crack, serial, keygen.


Attention!Information

Members of Guest cannot leave comments.