VA - Gregorian Chants (2015) [3CD Box Set]

Download Now

VA - Gregorian Chants (2015) [3CD Box Set]

VA - Gregorian Chants (2015)
EAC Rip | FLAC (Img) + Cue + Log ~ 965 Mb | MP3 CBR320 ~ 503 Mb
Scans Included (JPG, 300 dpi) | RAR 5% Recovery
Gregorian Chants, Choral, New Age | Euro Trend #313.090

"3CD compilation by Eurotrend. Gregorian Chants of Monks Of The Benedictine Abbey Of Calcat With Boys Choire From Lalumnat (CD1); Capella Gregoriana (CD2); Benedictine Monks Of St. Wandrille, Holy Voices Of St. Gregory, Collegium Musicum Aldovadensis, Luciano Pavarotti (CD3) and other... "

VA - Gregorian Chants (2015) [3CD Box Set]

Track List CD1:

01. Christus Natus Est (Christus Ist Geboren) - Monks Of The Benedictine Abbey Of Calcat With Boys Choire From Lalumnat [04:16]
02. Christe Redemptor Omnium (Christus, Erloser Aller Welt) - Monks Of The Benedictine Abbey Of Calcat With Boys Choire From Lalumnat [02:33]
03. Litany Of Easter Eve (Gebet Am Osterabend) - Monks Of The Benedictine Abbey Of Calcat With Boys Choire From Lalumnat [04:03]
04. Exultet (Jauchze - Das Gesungene Osterlob) - Monks Of The Benedictine Abbey Of Calcat With Boys Choire From Lalumnat [04:15]
05. Salve Festa Dies (Gegru.et Sei, Du Festlicher Tag) - Monks Of The Benedictine Abbey Of Calcat With Boys Choire From Lalumnat [03:00]
06. Surrexit Dominus Vere! Alleluia! (Die Auferstehung Des Herren) - Monks Of The Benedictine Abbey Of Calcat With Boys Choire From Lalumnat [03:09]
07. Vidi Aquam (Ich Sah Wasser Flie.en) - Monks Of The Benedictine Abbey Of Calcat With Boys Choire From Lalumnat [03:40]
08. Sunday Processional (Palm Sonntag) - Monks Of The Benedictine Abbey Of Calcat With Boys Choire From Lalumnat [03:46]
09. Complines (Beachtung) - Monks Of The Benedictine Abbey Of Calcat With Boys Choire From Lalumnat [04:09]
10. La Semence (Der Same): Veni Sancte Spiritus (Ruf Zum Evangelium), Veni Creator - Monks Of The Benedictine Abbey Of Calcat With Boys Choire From Lalumnat [04:45]
11. L'esperance Gaudemus (Hoffnung-Frohlich), Salve Regina - Monks Of The Benedictine Abbey Of Calcat With Boys Choire From Lalumnat [06:07]
12. Adcoenam Agni Provide (Zum Mahl Des Lammes Schreiten Wir) - Monks Of The Benedictine Abbey Of Calcat With Boys Choire From Lalumnat [02:42]
13. Salve Dies, Dierum Gloria (Variationen Rund Um Das Stundengebet) - Monks Of The Benedictine Abbey Of Calcat With Boys Choire From Lalumnat [03:51]
14. Monastery Bells (Klosterglocken) - Bells Of St. Martin [03:38]

Exact Audio Copy V1.0 beta 3 from 29. August 2011

EAC extraction logfile from 1. September 2015, 20:20

Gregorian Chants / Best Of CD1 (313090)

Used drive : TSSTcorpDVDWBD SH-B123L Adapter: 4 ID: 0

Read mode : Secure
Utilize accurate stream : Yes
Defeat audio cache : Yes
Make use of C2 pointers : No

Read offset correction

: 6
Overread into Lead-In and Lead-Out : No
Fill up missing offset samples with silence : Yes
Delete leading and trailing silent blocks : No
Null samples used in CRC calculations : Yes
Used interface
: Installed external ASPI interface

Used output format : User Defined Encoder
Selected bitrate : 128 kBit/s
Quality : High
Add ID3 tag : Yes
Command line compressor : G:\Program Files (x86)\Exact Audio Copy\Flac\flac.exe
Additional command line options : -V -8 -T "Date=%year%" -T "Genre=%genre%" %source%

TOC of the extracted CD Track | Start | Length | Start sector | End sector
--1 | 0:00.00 | 4:15.42 | 0 | 19166 2 | 4:15.42 | 2:32.11 | 19167 | 30577 3 | 6:47.53 | 4:02.28 | 30578 | 48755 4 | 10:50.06 | 4:14.60 | 48756 | 67865 5 | 15:04.66 | 2:59.51 | 67866 | 81341 6 | 18:04.42 | 3:08.15 | 81342 | 95456 7 | 21:12.57 | 3:39.28 | 95457 | 111909 8 | 24:52.10 | 3:45.26 | 111910 | 128810 9 | 28:37.36 | 4:08.60 | 128811 | 147470
10 | 32:46.21 | 4:44.29 | 147471 | 168799
11 | 37:30.50 | 6:06.70 | 168800 | 196319
12 | 43:37.45 | 2:41.16 | 196320 | 208410
13 | 46:18.61 | 3:50.54 | 208411 | 225714
14 | 50:09.40 | 3:37.73 | 225715 | 242062

Range status and errors

Selected range Filename D:\MUSIC\Gregorian Chants - Best Of CD1 (313090).wav Peak level 97.7 %
Extraction speed 3.5 X
Range quality 100.0 %
Test CRC 2FE24A1C
Copy CRC 2FE24A1C
Copy OK

No errors occurred


AccurateRip summary

Track 1 not present in database
Track 2 not present in database
Track 3 not present in database
Track 4 not present in database
Track 5 not present in database
Track 6 not present in database
Track 7 not present in database
Track 8 not present in database
Track 9 not present in database
Track 10 not present in database
Track 11 not present in database
Track 12 not present in database
Track 13 not present in database
Track 14 not present in database

None of the tracks are present in the AccurateRip database

End of status report

==== Log checksum 589698A19F937980A1669FECE35CF7E045A8BB352FF44B85AF139277ADE587F9 ====

foobar2000 1.2.6 / Dynamic Range Meter 1.1.1
log date: 2015-10-08 11:48:24

Analyzed: Gregorian Chants / Best Of CD1 (313090)

DR Peak RMS Duration Track

DR12 -4.23 dB -20.84 dB 4:16 01-1. Christus Natus Est (Christus Ist Geboren) - Monks Of The Benedictine Abbey...
DR10 -4.79 dB -19.12 dB 2:32 02-2. Christe Redemptor Omnium (Christus, Erloser Aller Welt) - Monks Of The Ben...
DR13 -2.05 dB -17.81 dB 4:02 03-3. Litany Of Easter Eve (Gebet Am Osterabend) - Monks Of The Benedictine Abbe...
DR12 -2.76 dB -18.53 dB 4:15 04-4. Exultet (Jauchze - Das Gesungene Osterlob) - Monks Of The Benedictine Abbe...
DR11 -3.61 dB -18.71 dB 3:00 05-5. Salve Festa Dies (Gegru.et Sei, Du Festlicher Tag) - Monks Of The Benedict...
DR12 -2.04 dB -20.00 dB 3:08 06-6. Surrexit Dominus Vere! Alleluia! (Die Auferstehung Des Herren) - Monks Of ...
DR11 -4.14 dB -18.33 dB 3:39 07-7. Vidi Aquam (Ich Sah Wasser Flie.en) - Monks Of The Benedictine Abbey Of Ca...
DR11 -4.28 dB -20.33 dB 3:45 08-8. Sunday Processional (Palm Sonntag) - Monks Of The Benedictine Abbey Of Cal...
DR12 -2.99 dB -19.32 dB 4:09 09-9. Complines (Beachtung) - Monks Of The Benedictine Abbey Of Calcat With Boys...
DR12 -0.68 dB -20.46 dB 4:44 10-10. La Semence (Der Same): Veni Sancte Spiritus (Ruf Zum Evangelium), Veni Cr...
DR11 -1.38 dB -19.55 dB 6:07 11-11. L'esperance Gaudemus (Hoffnung-Frohlich), Salve Regina (Gegru.est Seist D...
DR13 -0.20 dB -20.17 dB 2:41 12-12. Adcoenam Agni Provide (Zum Mahl Des Lammes Schreiten Wir) - Monks Of The ...
DR15 -2.06 dB -21.76 dB 3:51 13-13. Salve Dies, Dierum Gloria (Variationen Rund Um Das Stundengebet) - Monks ...
DR11 -3.83 dB -17.26 dB 3:38 14-14. Monastery Bells (Klosterglocken) - Bells Of St. Martin

Number of tracks: 14
Official DR value: DR12

Samplerate: 44100 Hz
Channels: 2
Bits per sample: 16
Bitrate: 642 kbps
Codec: FLAC

[CUETools log; Date: 08.10.2015 11:48:09; Version: 2.1.5]
[CTDB TOCID: aPEsQzQlGYWG66c6UK2U.LJhezQ-] disk not present in database.
[AccurateRip ID: 001b0c7b-0122e075-c50c9b0e] disk not present in database.

Track Peak [ CRC32 ] [W/O NULL] [ LOG ]
-- 97,7 [2FE24A1C] [654AEB27] CRC32
01 61,4 [C766DFE8] [F4A664A3]
02 57,6 [C8E77382] [A5A4B608]
03 78,9 [8B93E8C8] [AEE72C11]
04 72,7 [05CDAF91] CBE7714
05 65,9 C425A9F [7C5F9E1A]
06 79,0 [2F34D5BA] [49CA51C5]
07 62,0 [54FF9981] [3435A59A]
08 61,1 [CE52E7D6] [F5EF7B92]
09 70,8 [6EEE289D] [F2F0E989]
10 92,4 [067B83A3] [FAA3D039]
11 85,3 [CF71F68F] E735A8D
12 97,7 [C2CD36AE] [0F74638D]
13 94,5 [D28810BB] [577A1601]
14 64,3 [D5071454] [861CF5DC]

Track List CD2:

01. Daybreak - Morning Pray - Capella Gregoriana [06:10]
02. Dance Of Sacrifice - Capella Gregoriana [05:52]
03. Gregorian Feelings - Capella Gregoriana [06:14]
04. Hallelujah - Capella Gregoriana [04:50]
05. Mystic Procession - Capella Gregoriana [06:36]
06. Holy Spirit - Simple Song - Capella Gregoriana [06:05]
07. Introitus - Circle Of Life - Capella Gregoriana [04:43]
08. Praise The Lord - Capella Gregoriana [04:51]
09. Sounds From Heaven - Capella Gregoriana [06:46]
10. Dance In Trance - Capella Gregoriana [03:51]
11. Sound Of Silente - Capella Gregoriana [05:16]
12. Holy Days Of Glory - Capella Gregoriana [06:25]
13. Mystic Pray - Capella Gregoriana [04:46]
14. Improvisation On 'Salve Festa Dies' - Gegru.et Sei, Du Festlicher Tag, Fur Immer - Gregorian Church Singers [03:35]

Exact Audio Copy V1.0 beta 3 from 29. August 2011

EAC extraction logfile from 1. September 2015, 20:50

Gregorian Chants / Best Of CD2 (313090)

Used drive : TSSTcorpDVDWBD SH-B123L Adapter: 4 ID: 0

Read mode : Secure
Utilize accurate stream : Yes
Defeat audio cache : Yes
Make use of C2 pointers : No

Read offset correction

: 6
Overread into Lead-In and Lead-Out : No
Fill up missing offset samples with silence : Yes
Delete leading and trailing silent blocks : No
Null samples used in CRC calculations : Yes
Used interface
: Installed external ASPI interface

Used output format : User Defined Encoder
Selected bitrate : 128 kBit/s
Quality : High
Add ID3 tag : Yes
Command line compressor : G:\Program Files (x86)\Exact Audio Copy\Flac\flac.exe
Additional command line options : -V -8 -T "Date=%year%" -T "Genre=%genre%" %source%

TOC of the extracted CD Track | Start | Length | Start sector | End sector
--1 | 0:00.00 | 6:09.10 | 0 | 27684 2 | 6:09.10 | 5:51.26 | 27685 | 54035 3 | 12:00.36 | 6:13.45 | 54036 | 82055 4 | 18:14.06 | 4:49.59 | 82056 | 103789 5 | 23:03.65 | 6:35.51 | 103790 | 133465 6 | 29:39.41 | 6:04.50 | 133466 | 160815 7 | 35:44.16 | 4:42.53 | 160816 | 182018 8 | 40:26.69 | 4:50.46 | 182019 | 203814 9 | 45:17.40 | 6:45.41 | 203815 | 234230
10 | 52:03.06 | 3:50.08 | 234231 | 251488
11 | 55:53.14 | 5:15.14 | 251489 | 275127
12 | 61:08.28 | 6:24.55 | 275128 | 303982
13 | 67:33.08 | 4:45.68 | 303983 | 325425
14 | 72:19.01 | 3:34.67 | 325426 | 341542

Range status and errors

Selected range Filename D:\MUSIC\Gregorian Chants - Best Of CD2 (313090).wav Peak level 97.7 %
Extraction speed 6.7 X
Range quality 99.9 %
Test CRC 77251F65
Copy CRC 77251F65
Copy OK

No errors occurred


AccurateRip summary

Track 1 not present in database
Track 2 not present in database
Track 3 not present in database
Track 4 not present in database
Track 5 not present in database
Track 6 not present in database
Track 7 not present in database
Track 8 not present in database
Track 9 not present in database
Track 10 not present in database
Track 11 not present in database
Track 12 not present in database
Track 13 not present in database
Track 14 not present in database

None of the tracks are present in the AccurateRip database

End of status report

==== Log checksum 5DAA2328AF8C9BE4E839BC594B1B41FF6079DD42FD87AB622986DEDCAD23572F ====

foobar2000 1.2.6 / Dynamic Range Meter 1.1.1
log date: 2015-10-08 11:55:35

Analyzed: Gregorian Chants / Best Of CD2 (313090)

DR Peak RMS Duration Track

DR12 -2.73 dB -19.00 dB 6:09 01-1. Daybreak - Morning Pray - Capella Gregoriana
DR13 -2.61 dB -18.26 dB 5:51 02-2. Dance Of Sacrifice - Capella Gregoriana
DR14 -2.92 dB -20.23 dB 6:14 03-3. Gregorian Feelings - Capella Gregoriana
DR12 -2.39 dB -18.09 dB 4:50 04-4. Hallelujah - Capella Gregoriana
DR12 -3.42 dB -19.03 dB 6:36 05-5. Mystic Procession - Capella Gregoriana
DR14 -1.25 dB -17.55 dB 6:05 06-6. Holy Spirit - Simple Song - Capella Gregoriana
DR11 -3.51 dB -17.69 dB 4:43 07-7. Introitus - Circle Of Life - Capella Gregoriana
DR13 -1.34 dB -17.19 dB 4:51 08-8. Praise The Lord - Capella Gregoriana
DR14 -2.44 dB -19.05 dB 6:46 09-9. Sounds From Heaven - Capella Gregoriana
DR14 -0.20 dB -16.35 dB 3:50 10-10. Dance In Trance - Capella Gregoriana
DR12 -3.65 dB -18.17 dB 5:15 11-11. Sound Of Silente - Capella Gregoriana
DR13 -0.69 dB -17.49 dB 6:25 12-12. Holy Days Of Glory - Capella Gregoriana
DR14 -2.33 dB -18.13 dB 4:46 13-13. Mystic Pray - Capella Gregoriana
DR8 -5.34 dB -19.03 dB 3:35 14-14. Improvisation On 'Salve Festa Dies' - Gegru.et Sei, Du Festlicher Tag, Fu...

Number of tracks: 14
Official DR value: DR13

Samplerate: 44100 Hz
Channels: 2
Bits per sample: 16
Bitrate: 644 kbps
Codec: FLAC

[CUETools log; Date: 08.10.2015 11:55:33; Version: 2.1.5]
[CTDB TOCID: A0.z6KDctXm_gOHayoJtRKOHRcM-] disk not present in database.
[AccurateRip ID: 0028e2bb-01b02bc9-bf11c90e] disk not present in database.

Track Peak [ CRC32 ] [W/O NULL] [ LOG ]
-- 97,7 [77251F65] [193D3EDB] CRC32
01 73,0 [5EED0436] [934A04BF]
02 74,0 [8E32EAEC] [1CB27F2E]
03 71,4 [50447977] [266BE0B6]
04 75,9 [F890B7CB] [32AB95E9]
05 67,4 285EA16 [ECCB373B]
06 86,6 [1B7D4ACE] [3AC81653]
07 66,7 [7B4094D3] 275F038
08 85,6 [E1475620] [4D327235]
09 75,4 [F1323B75] [4BCB80D7]
10 97,7 [7CDE69DD] [397D5742]
11 65,7 [5AC5EDB9] [80C06AF0]
12 92,3 [749C9250] [074F3AD5]
13 76,4 [92BEC982] [C2CC380C]
14 54,0 [1D9950AE] [CB884599]

Track List CD3:

01. Mystic Monastery - Capella Gregoriana [11:06]
02. L'abendonace Cibavit: Alleluja, Pange Lingua (Besinge, Zunge), Ave Verum (Sei Gegrüßt, Wahrer Leib) - Monks Of The Benediticine Abbey Of Calcat With Boys Coir From Lalumnat [10:42]
03. Hodie Christus Natus Est (Oh Großes Geheimnis Und Wunderbares Mysterium...) - Monks Of The Benediticine Abbey Of Calcat With Boys Coir From Lalumnat [01:03]
04. Vox Turturis (Das Hohelied-Lied Der Lieder) - Benedictine Monks Of St. Wandrille [01:31]
05. Meditazione 'Christus Factus Est' - Holy Voices Of St. Gregory [06:43]
06. Benedictio Cerei (Kerzenlob-Osterkerzweihe) - Holy Voices Of St. Gregory [06:58]
07. Madrigalbuch- Altri Canti Di Marte - Collegium Musicum Aldovadensis [04:27]
08. Madrigalbuch - Due Belli Occhi (Zwei Schone Augen) - Collegium Musicum Aldovadensis [04:02]
09. Madrigalbuch - Vago Augelletto - Collegium Musicum Aldovadensis [04:39]
10. Madrigalbuch - Dolcissimo Uscignuolo - Collegium Musicum Aldovadensis [03:34]
11. Madrigalbuch - Chi Vol Haver Felice - Collegium Musicum Aldovadensis [02:12]
12. Gloria - Gregorian Street Voices [04:22]
13. Annue, Christie - Monastery Singers [01:13]
14. Agnus Dei (Lamm Gottes) - Pavarotti, Luciano [03:08]

Exact Audio Copy V1.0 beta 3 from 29. August 2011

EAC extraction logfile from 1. September 2015, 22:48

Gregorian Chants / Best Of CD3 (313090)

Used drive : TSSTcorpDVDWBD SH-B123L Adapter: 4 ID: 0

Read mode : Secure
Utilize accurate stream : Yes
Defeat audio cache : Yes
Make use of C2 pointers : No

Read offset correction

: 6
Overread into Lead-In and Lead-Out : No
Fill up missing offset samples with silence : Yes
Delete leading and trailing silent blocks : No
Null samples used in CRC calculations : Yes
Used interface
: Installed external ASPI interface

Used output format : User Defined Encoder
Selected bitrate : 128 kBit/s
Quality : High
Add ID3 tag : Yes
Command line compressor : G:\Program Files (x86)\Exact Audio Copy\Flac\flac.exe
Additional command line options : -V -8 -T "Date=%year%" -T "Genre=%genre%" %source%

TOC of the extracted CD Track | Start | Length | Start sector | End sector
--1 | 0:00.00 | 11:05.73 | 0 | 49947 2 | 11:05.73 | 10:41.62 | 49948 | 98084 3 | 21:47.60 | 1:02.37 | 98085 | 102771 4 | 22:50.22 | 1:30.01 | 102772 | 109522 5 | 24:20.23 | 6:42.65 | 109523 | 139737 6 | 31:03.13 | 6:57.16 | 139738 | 171028 7 | 38:00.29 | 4:26.51 | 171029 | 191029 8 | 42:27.05 | 4:01.07 | 191030 | 209111 9 | 46:28.12 | 4:38.68 | 209112 | 230029
10 | 51:07.05 | 3:33.18 | 230030 | 246022
11 | 54:40.23 | 2:11.56 | 246023 | 255903
12 | 56:52.04 | 4:21.19 | 255904 | 275497
13 | 61:13.23 | 1:12.43 | 275498 | 280940
14 | 62:25.66 | 3:07.34 | 280941 | 294999

Range status and errors

Selected range Filename D:\MUSIC\Gregorian Chants - Best Of CD3 (313090).wav Peak level 97.7 %
Extraction speed 6.2 X
Range quality 99.9 %
Test CRC B679ABAA
Copy CRC B679ABAA
Copy OK

No errors occurred


AccurateRip summary

Track 1 not present in database
Track 2 not present in database
Track 3 not present in database
Track 4 not present in database
Track 5 not present in database
Track 6 not present in database
Track 7 not present in database
Track 8 not present in database
Track 9 not present in database
Track 10 not present in database
Track 11 not present in database
Track 12 not present in database
Track 13 not present in database
Track 14 not present in database

None of the tracks are present in the AccurateRip database

End of status report

==== Log checksum 3362D4741A9D66BEFD025659C4781CC6CBA6ABA8E4356E8947BBA2CAE33CEBF2 ====

foobar2000 1.2.6 / Dynamic Range Meter 1.1.1
log date: 2015-10-08 12:22:46

Analyzed: Gregorian Chants / Best Of CD3 (313090)

DR Peak RMS Duration Track

DR10 -2.82 dB -15.44 dB 11:06 01-1. Mystic Monastery - Capella Gregoriana
DR12 -0.20 dB -18.53 dB 10:42 02-2. L'abendonace Cibavit: Alleluja, Pange Lingua (Besinge, Zunge), Ave Verum (...
DR10 -2.46 dB -15.33 dB 1:02 03-3. Hodie Christus Natus Est (Oh Gro.es Geheimnis Und Wunderbares Mysterium......
DR10 -3.16 dB -18.26 dB 1:30 04-4. Vox Turturis (Das Hohelied-Lied Der Lieder) - Benedictine Monks Of St. Wan...
DR11 -3.95 dB -19.71 dB 6:43 05-5. Meditazione 'Christus Factus Est' - Holy Voices Of St. Gregory
DR11 -1.78 dB -16.24 dB 6:57 06-6. Benedictio Cerei (Kerzenlob-Osterkerzweihe) - Holy Voices Of St. Gregory
DR10 -2.09 dB -15.83 dB 4:27 07-7. Madrigalbuch- Altri Canti Di Marte - Collegium Musicum Aldovadensis
DR10 -2.78 dB -16.69 dB 4:01 08-8. Madrigalbuch - Due Belli Occhi (Zwei Schone Augen) - Collegium Musicum Ald...
DR11 -0.69 dB -17.26 dB 4:39 09-9. Madrigalbuch - Vago Augelletto - Collegium Musicum Aldovadensis
DR11 -2.00 dB -18.28 dB 3:33 10-10. Madrigalbuch - Dolcissimo Uscignuolo - Collegium Musicum Aldovadensis
DR12 -2.19 dB -18.59 dB 2:12 11-11. Madrigalbuch - Chi Vol Haver Felice - Collegium Musicum Aldovadensis
DR11 -3.59 dB -17.65 dB 4:21 12-12. Gloria - Gregorian Street Voices
DR10 -2.69 dB -15.75 dB 1:13 13-13. Annue, Christie - Monastery Singers
DR10 -2.58 dB -17.73 dB 3:07 14-14. Agnus Dei (Lamm Gottes) - Pavarotti, Luciano

Number of tracks: 14
Official DR value: DR11

Samplerate: 44100 Hz
Channels: 2
Bits per sample: 16
Bitrate: 620 kbps
Codec: FLAC

[CUETools log; Date: 08.10.2015 12:21:02; Version: 2.1.5]
[CTDB TOCID: HD.nZ4L5Tfo2Q6PQc2N5ja546Ys-] disk not present in database.
[AccurateRip ID: 002881a9-01992d27-db0f5d0e] disk not present in database.

Track Peak [ CRC32 ] [W/O NULL] [ LOG ]
-- 97,7 679ABAA [1134F2DA] CRC32
01 72,3 [F5AC0BCB] [02FFDF22]
02 97,7 [07065D3E] [260F5A7F]
03 75,3 [DABE2629] [D3AA5E04]
04 69,5 [6F44897F] [DA86E919]
05 63,4 [D9E34448] [F6CF7A05]
06 81,4 [50258A5F] [44A1C95B]
07 78,6 [D5A7FD4B] [0EC5FBAF]
08 72,6 8AF66D5 [3258ACAD]
09 92,3 [8B303E16] [1F521820]
10 79,4 [9A1F25C6] [0762EC0D]
11 77,7 [DE3773E6] [67B9C20A]
12 66,1 [59666072] [1BFFDE61]
13 73,4 [974A04EF] [77792DE1]
14 74,2 [E31642E4] [38D694FC]

VA - Gregorian Chants (2015) [3CD Box Set]

VA - Gregorian Chants (2015) [3CD Box Set]



Download Links:
(Premium Recommended)


All above links are interchangable. No password

Direct Download

Tags: Gregorian, Chants

VA - Gregorian Chants (2015) [3CD Box Set] Download via Hotfile Rapidshare Fileserve Megaupload & FileSonic, VA - Gregorian Chants (2015) [3CD Box Set] free torrent downloads included crack, serial, keygen.


Attention!Information

Members of Guest cannot leave comments.