Cold Chisel - The Perfect Crime (2015)

Download Now

Cold Chisel - The Perfect Crime (2015)

Cold Chisel - The Perfect Crime (2015)
EAC | FLAC | Tracks (Cue&Log) ~ 406 Mb (incl 5%) | Scans ~ 107 Mb | Time: 00:58:42
Genre: Classic Rock, Pub Rock, Hard Rock | Label: Universal | # CC015

"The legendary Cold Chisel release their new studio album! Titled 'The Perfect Crime', and featuring songs drawn from recording sessions across 2014 and 2015, the album will be kick-started by the single "Lost!" With 'The Perfect Crime,' there's a real sense among the band that they might just have pulled off the most definitive musical statement in the band's unparalleled four-decade career. Cold Chisel are the classic Australian pub rock band, playing a tough breed of rock and blues inspired by '70s bands like Free, Deep Purple, and Led Zeppelin, but characterized by the storytelling skills of their main songwriter, Don Walker, whose personal influences came from Bob Dylan. Between 1978 and 1983, Cold Chisel ruled as Australia's most popular band on record and on-stage. They sold over six million records in Australia alone, most of that number after their 1983 breakup and 1998 reunion."

"Cold Chisel are the classic Australian pub rock band, playing a tough breed of rock and blues inspired by '70s bands like Free, Deep Purple, and Led Zeppelin, but characterized by the storytelling skills of their main songwriter, Don Walker, whose personal influences came from Bob Dylan. Between 1978 and 1983, Cold Chisel ruled as Australia's most popular band on record and on-stage. They sold over six million records in Australia alone, most of that number after their 1983 breakup and 1998 reunion.

They came together in Adelaide during September 1973 on the initiative of guitarist/singer Ian Moss. In the beginning, the band used a different name for every performance. After they used the name of the Don Walker song "Cold Chisel" for one particular performance, that name stuck. Keyboard player Walker gradually came up with a strong catalog of songs to match the group's tough rock reputation on-stage, centered mainly on their raw-voiced, vodka-swilling, dripping-with-sweat singer Jimmy Barnes. Bass player Phil Small replaced original member Les Kaczmarek in 1975, and at the start of 1977, Cold Chisel resettled in Sydney hoping to land the record contract that had alluded them for more than a year.

In the era of Fleetwood Mac, ELO, and the Eagles, Cold Chisel's sound was not deemed commercial. However WEA Records took the chance and their self-titled first album was released in April 1978 without setting the world on fire. The first single, "Khe Sahn," about an Australian Vietnam veteran, was banned from airplay over part of the lyric. It has since become one of the most played classic rock tracks on Australian radio. The second album saw Cold Chisel enter the Top Ten, less raw than the band on-stage, but concentrating on the songs. Filled with localized lyric references, Breakfast At Sweethearts earned the band its first platinum record. June 1980's East album took the band over the top, tougher than Breakfast At Sweethearts but still stacked with strong songs, this time with other bandmembers joining in the songwriting, and guitarist Ian Moss taking lead vocals on two songs with his strong soul voice. They followed East with the number one live album Swingshift while supporting the U.S. release of East with tours across the country. The next album was aimed at the world market, but its title said how out of place they felt. They called it Circus Animals. Tours of Europe and the U.K. followed.

Disillusionment set in when the band's music failed to find favor in America, adding to the internal tensions created by various members' songwriting ambitions and singer Jimmy Barnes' volatile personality. On innumerable occasions throughout the band's lifespan, he had quit the band and rejoined. But now, after ten years together, Cold Chisel decided to call it quits with a farewell tour ending at the Sydney Entertainment Centre in December 1983. Barnes immediately launched an incredibly successful solo career, accumulating seven Australian number one albums. Guitarist Ian Moss took five years off before releasing a number one album of his own, reuniting him with the songs of Don Walker. Walker started his own low-key recording and performing career, forging relationships with a varied assortment of Australian music-makers, both rock and country. Drummer Steve Prestwich joined Little River Band for two years. Throughout the rest of the '80s and into the '90s, Cold Chisel albums kept selling and fans vainly hoped for a reunion.

Then, after almost two years of secret discussions and jam sessions, a reunion album and tour were assembled in 1998. The Last Wave of Summer topped the album chart in Australia, and the band played to sold-out arenas across the country. They released a live music soundtrack to a documentary about the tour titled Last Stand less than a year later. Over the next decade, Cold Chisel regrouped for touring and a few one-off shows, then in 2010 Moss revealed that they were working on a new album. Sadly, Prestwich died early the next year after brain surgery for a tumor. The group enlisted Charley Drayton (the Divinyls, the Cult) to play drums and hit the road again beginning in 2011, releasing the album No Plans, which featured the drumming of both Prestwich and Drayton, in the spring of 2012. The album reached number two in Australia. A series of successful album reissues, compilations, and high-drawing tours led to an eighth studio album, The Perfect Crime, in the fall of 2015.

Ed Nimmervoll, Allmusic.com
"




Tracklist:

01. Alone For You (03:10)
02. The Backroom (03:35)
03. All Hell Broke Lucy (04:06)
04. The Perfect Crime (02:39)
05. Long Dark Road (04:33)
06. Four In The Morning (05:21)
07. The Mansions (03:12)
08. The Toast Of Paris (04:41)
09. Shoot The Moon (03:29)
10. Mexican Wedding (03:34)
11. Get Lucky (03:01)
12. Bus Station (05:11)
13. Lost (04:03)
14. Romantic Lies (03:28)
15. Blue Flame (04:16)


Exact Audio Copy V1.0 beta 3 from 29. August 2011

EAC extraction logfile from 8. October 2015, 2:12

Cold Chisel / The Perfect Crime

Used drive : HL-DT-STDVDRAM GH24NS90 Adapter: 1 ID: 0

Read mode : Secure
Utilize accurate stream : Yes
Defeat audio cache : No
Make use of C2 pointers : Yes

Read offset correction

: 6
Overread into Lead-In and Lead-Out : No
Fill up missing offset samples with silence : Yes
Delete leading and trailing silent blocks : No
Null samples used in CRC calculations : Yes
Used interface
: Native Win32 interface for Win NT & 2000
Gap handling
: Appended to previous track

Used output format : User Defined Encoder
Selected bitrate : 1024 kBit/s
Quality : High
Add ID3 tag : No
Command line compressor : C:\Program Files (x86)\FLAC\metaflac.exe
Additional command line options : -8

TOC of the extracted CD Track | Start | Length | Start sector | End sector
--1 | 0:00.00 | 3:11.22 | 0 | 14346 2 | 3:11.22 | 3:35.51 | 14347 | 30522 3 | 6:46.73 | 4:06.01 | 30523 | 48973 4 | 10:52.74 | 2:40.74 | 48974 | 61047 5 | 13:33.73 | 4:34.05 | 61048 | 81602 6 | 18:08.03 | 5:22.61 | 81603 | 105813 7 | 23:30.64 | 3:13.37 | 105814 | 120325 8 | 26:44.26 | 4:43.11 | 120326 | 141561 9 | 31:27.37 | 3:30.20 | 141562 | 157331
10 | 34:57.57 | 3:35.30 | 157332 | 173486
11 | 38:33.12 | 3:02.54 | 173487 | 187190
12 | 41:35.66 | 5:12.72 | 187191 | 210662
13 | 46:48.63 | 4:06.28 | 210663 | 229140
14 | 50:55.16 | 3:30.04 | 229141 | 244894
15 | 54:25.20 | 4:16.50 | 244895 | 264144

Track 1 Filename C:\Exact Audio Copy\Cold Chisel\The Perfect Crime\01. Alone For You.wav Pre-gap length 0:00:02.00 Peak level 99.8 %
Extraction speed 4.0 X
Track quality 100.0 %
Test CRC 70A045E8
Copy CRC 70A045E8
Track not present in AccurateRip database
Copy OK

Track 2 Filename C:\Exact Audio Copy\Cold Chisel\The Perfect Crime\02. The Backroom.wav Pre-gap length 0:00:01.20 Peak level 99.1 %
Extraction speed 4.4 X
Track quality 100.0 %
Test CRC DA790AC9
Copy CRC DA790AC9
Track not present in AccurateRip database
Copy OK

Track 3 Filename C:\Exact Audio Copy\Cold Chisel\The Perfect Crime\03. All Hell Broke Lucy.wav Peak level 99.5 %
Extraction speed 4.7 X
Track quality 99.9 %
Test CRC 7B15EB66
Copy CRC 7B15EB66
Track not present in AccurateRip database
Copy OK

Track 4 Filename C:\Exact Audio Copy\Cold Chisel\The Perfect Crime\04. The Perfect Crime.wav Peak level 99.4 %
Extraction speed 5.2 X
Track quality 100.0 %
Test CRC 0C92F7D3
Copy CRC 0C92F7D3
Track not present in AccurateRip database
Copy OK

Track 5 Filename C:\Exact Audio Copy\Cold Chisel\The Perfect Crime\05. Long Dark Road.wav Pre-gap length 0:00:01.41 Peak level 99.4 %
Extraction speed 5.4 X
Track quality 99.9 %
Test CRC FB5A6CD0
Copy CRC FB5A6CD0
Track not present in AccurateRip database
Copy OK

Track 6 Filename C:\Exact Audio Copy\Cold Chisel\The Perfect Crime\06. Four In The Morning.wav Pre-gap length 0:00:01.00 Peak level 99.2 %
Extraction speed 5.8 X
Track quality 99.9 %
Test CRC 840958C6
Copy CRC 840958C6
Track not present in AccurateRip database
Copy OK

Track 7 Filename C:\Exact Audio Copy\Cold Chisel\The Perfect Crime\07. The Mansions.wav Pre-gap length 0:00:01.50 Peak level 99.4 %
Extraction speed 6.3 X
Track quality 100.0 %
Test CRC 754265CB
Copy CRC 754265CB
Track not present in AccurateRip database
Copy OK

Track 8 Filename C:\Exact Audio Copy\Cold Chisel\The Perfect Crime\08. The Toast Of Paris.wav Pre-gap length 0:00:01.08 Peak level 100.0 %
Extraction speed 6.4 X
Track quality 100.0 %
Test CRC D569F809
Copy CRC D569F809
Track not present in AccurateRip database
Copy OK

Track 9 Filename C:\Exact Audio Copy\Cold Chisel\The Perfect Crime\09. Shoot The Moon.wav Pre-gap length 0:00:01.18 Peak level 99.3 %
Extraction speed 6.6 X
Track quality 100.0 %
Test CRC CE977B1F
Copy CRC CE977B1F
Track not present in AccurateRip database
Copy OK

Track 10 Filename C:\Exact Audio Copy\Cold Chisel\The Perfect Crime\10. Mexican Wedding.wav Pre-gap length 0:00:01.16 Peak level 99.4 %
Extraction speed 6.8 X
Track quality 99.9 %
Test CRC D6885383
Copy CRC D6885383
Track not present in AccurateRip database
Copy OK

Track 11 Filename C:\Exact Audio Copy\Cold Chisel\The Perfect Crime\11. Get Lucky.wav Pre-gap length 0:00:01.09 Peak level 99.1 %
Extraction speed 7.4 X
Track quality 100.0 %
Test CRC E4B14CA4
Copy CRC E4B14CA4
Track not present in AccurateRip database
Copy OK

Track 12 Filename C:\Exact Audio Copy\Cold Chisel\The Perfect Crime\12. Bus Station.wav Pre-gap length 0:00:01.15 Peak level 99.9 %
Extraction speed 7.6 X
Track quality 100.0 %
Test CRC 5A42195F
Copy CRC 5A42195F
Track not present in AccurateRip database
Copy OK

Track 13 Filename C:\Exact Audio Copy\Cold Chisel\The Perfect Crime\13. Lost.wav Pre-gap length 0:00:01.57 Peak level 100.0 %
Extraction speed 7.9 X
Track quality 100.0 %
Test CRC ED435762
Copy CRC ED435762
Track not present in AccurateRip database
Copy OK

Track 14 Filename C:\Exact Audio Copy\Cold Chisel\The Perfect Crime\14. Romantic Lies.wav Pre-gap length 0:00:02.29 Peak level 98.8 %
Extraction speed 8.1 X
Track quality 100.0 %
Test CRC C1201FAB
Copy CRC C1201FAB
Track not present in AccurateRip database
Copy OK

Track 15 Filename C:\Exact Audio Copy\Cold Chisel\The Perfect Crime\15. Blue Flame.wav Pre-gap length 0:00:01.34 Peak level 99.2 %
Extraction speed 8.4 X
Track quality 100.0 %
Test CRC 43761160
Copy CRC 43761160
Track not present in AccurateRip database
Copy OK

None of the tracks are present in the AccurateRip database

No errors occurred

End of status report

==== Log checksum B574DAC07B8C59BCF0441309FEA6FBDF40CEE0927866DE5E9A6B66C2BBC573AB ====

[CUETools log; Date: 08.10.2015 17:29:14; Version: 2.1.4]
[CTDB TOCID: Z53ncH7fdMf2g7Ki2crCB6gbwYQ-] found.
Track | CTDB Status
1 | (3/3) Accurately ripped
2 | (3/3) Accurately ripped
3 | (3/3) Accurately ripped
4 | (3/3) Accurately ripped
5 | (3/3) Accurately ripped
6 | (3/3) Accurately ripped
7 | (3/3) Accurately ripped
8 | (3/3) Accurately ripped
9 | (3/3) Accurately ripped
10 | (3/3) Accurately ripped
11 | (3/3) Accurately ripped
12 | (3/3) Accurately ripped
13 | (3/3) Accurately ripped
14 | (3/3) Accurately ripped
15 | (3/3) Accurately ripped
[AccurateRip ID: 001f9a0b-01691061-d20dc10f] disk not present in database.

Track Peak [ CRC32 ] [W/O NULL] [ LOG ]
-- 100,0 [0EA3ECA6] [98DA1297]
01 99,8 [70A045E8] [427B0748] CRC32
02 99,1 [DA790AC9] [4912BF8A] CRC32
03 99,5 [7B15EB66] [9D5F9326] CRC32
04 99,4 [0C92F7D3] [D4412295] CRC32
05 99,4 [FB5A6CD0] [EB76E49E] CRC32
06 99,2 [840958C6] [C77129A4] CRC32
07 99,4 [754265CB] DAE4A4F CRC32
08 100,0 [D569F809] [C3E48AB9] CRC32
09 99,3 [CE977B1F] [66C36D99] CRC32
10 99,4 [D6885383] [F4FA7A19] CRC32
11 99,1 [E4B14CA4] [7CC82BE9] CRC32
12 99,9 [5A42195F] [738FE6D1] CRC32
13 100,0 [ED435762] [A62A6433] CRC32
14 98,8 [C1201FAB] [1776EFAB] CRC32
15 99,2 [43761160] [CA2F3AA7] CRC32

foobar2000 1.2 / Dynamic Range Meter 1.1.1
log date: 2015-10-08 17:31:43

Analyzed: Cold Chisel / The Perfect Crime

DR Peak RMS Duration Track

DR8 -0.02 dB -9.40 dB 3:11 01-Alone For You
DR8 -0.07 dB -9.26 dB 3:36 02-The Backroom
DR7 -0.04 dB -8.37 dB 4:06 03-All Hell Broke Lucy
DR9 -0.05 dB -10.41 dB 2:41 04-The Perfect Crime
DR7 -0.05 dB -9.52 dB 4:34 05-Long Dark Road
DR9 -0.06 dB -9.77 dB 5:23 06-Four In The Morning
DR8 -0.05 dB -9.37 dB 3:13 07-The Mansions
DR9 0.00 dB -9.69 dB 4:43 08-The Toast Of Paris
DR9 -0.06 dB -10.24 dB 3:30 09-Shoot The Moon
DR9 -0.05 dB -10.05 dB 3:35 10-Mexican Wedding
DR9 -0.07 dB -10.70 dB 3:03 11-Get Lucky
DR9 0.00 dB -10.23 dB 5:13 12-Bus Station
DR7 0.00 dB -9.34 dB 4:06 13-Lost
DR13 -0.10 dB -14.80 dB 3:30 14-Romantic Lies
DR8 -0.07 dB -10.63 dB 4:17 15-Blue Flame

Number of tracks: 15
Official DR value: DR9

Samplerate: 44100 Hz
Channels: 2
Bits per sample: 16
Bitrate: 863 kbps
Codec: FLAC

Cold Chisel - The Perfect Crime (2015)

All thanks to original releaser - saintsmon
Password: designol

DOWNLOAD LINKS:
(Premium Recommended)


All above links are interchangable. No password

Direct Download

Tags: Chisel, Perfect

Cold Chisel - The Perfect Crime (2015) Download via Hotfile Rapidshare Fileserve Megaupload & FileSonic, Cold Chisel - The Perfect Crime (2015) free torrent downloads included crack, serial, keygen.


Attention!Information

Members of Guest cannot leave comments.