Rosamunde Quartett - Joseph Haydn: The Seven Words (2001)

Download Now

Rosamunde Quartett - Joseph Haydn: The Seven Words (2001)

Rosamunde Quartett - Joseph Haydn: The Seven Words (2001)
EAC | FLAC | Image (Cue&Log) ~ 300 Mb (incl 5%) | Mp3 (CBR320) ~ 180 Mb (incl 5%) | Scans included
Genre: Classical, Chamber Music | Label: ECM | # ECM New Series 1756, 461 780-2 | Time: 01:06:09

"On this recording of The Seven Words, the Rosamunde String Quartet offers a compelling rendition of one of Haydn's most complex compositions. The Seven Words was originally composed for a full orchestra as a series of seven adagios, which were meant to be interludes during a congregation's meditations on the last seven words of Christ on the Cross. Haydn struggled with a way to compose seven connected pieces of music that were solemn and yet varied enough to keep the listener from getting bored. The members of the Rosamunde Quartet are technically brilliant as they demonstrate the composer's solutions to this musical puzzle. Even though the tempo is slow, they never let the music become ponderous or oppressive. But to Haydn, The Seven Words was more than just an aural conundrum. He felt the composition was perhaps his most sacred work, and the quartet plays this music with reverence for the composer's spiritual intentions. This is a profound piece of music, and the Rosamunde does it justice on each of its many levels."

"This reading is alert not only to musical texture, but to the modulating phrase and the dramaturgy of key changes between movements. The playing is limpid and subtly coloured, sparing of vibrato (in that respect the Rosamunde are heedful of various period-instrument models) and, at the beginning of the third movement, suspended in a sense of rapture. Another imaginative aspect of this performance is the way it reflects the sense of the text, just as Haydn does in those movements that seem to follow the pattern of the words he set. This feeling of narrative is especially keen in the fourth movement, 'Woman, behold thy son!' and the closing 'Earthquake'.

The list of virtues is fairly simple to enumerate: variety and refinement of tone, internal clarity, historical awareness, imagination and a certain poise that not all its rivals can claim in equal measure.

It serves well as a compromise between period-instrument clarity and modern-instrument warmth. Against strong competition its fuller instrumental sonority is marginally to be preferred. A first-rate CD of a wonderful score.

Gramophone Classical Music Guide 2010
"




Rosamunde Quartett:

- Andreas Reiner, violin
- Simon Fordham, violin
- Helmut Nicolai, viola
- Anja Lechner, violoncello

Tracklist:

The Seven Last Words of our Saviour on the Cross

Seven quartets for two violins, viola and violoncello, Hob. III: 50-56

01. Introduzione - Maestoso ed Adagio (06:11)
02. I. Largo (06:38)
03. II. Grave e cantabile (09:14)
04. III. Grave (09:21)
05. IV. Largo (08:18)
06. V. Adagio (08:01)
07. VI Lento (08:25)
08. VII. Largo (07:57)
09. Il Terremoto - Presto e con tutta la forza (01:59)


Exact Audio Copy V1.0 beta 3 from 29. August 2011

Отчёт EAC об извлечении, выполненном 25. июля 2013, 2:16

Rosamunde Quartett / Haydn - The Seven Last Words of Our Saviour on the Cross

Дисковод: HL-DT-STDVDRAM GT33N Adapter: 1 ID: 0

Режим чтения : Достоверность
Использование точного потока : Да
Отключение кэша аудио : Да
Использование указателей C2 : Нет

Коррекция смещения при чтении : 103
Способность читать области Lead-in и Lead-out : Нет
Заполнение пропущенных сэмплов тишиной : Да
Удаление блоков с тишиной в начале и конце : Нет
При вычислениях CRC использовались нулевые сэмплы : Да
Интерфейс : Встроенный Win32-интерфейс для Win NT/2000

Выходной формат : Пользовательский кодировщик
Выбранный битрейт : 1024 kBit/s
Качество : Высокий
Добавление ID3-тега : Да
Утилита сжатия : C:\Program Files (x86)\Exact Audio Copy\Flac\flac.exe
Дополнительные параметры : -8 -V -T "TITLE=%title%" -T "ARTIST=%artist%" -T "ALBUMARTIST=%albumartist%" -T "ALBUM=%albumtitle%" -T "DATE=%year%" -T "TRACKTOTAL=%numtracks%" -T "GENRE=%genre%" -T "COMMENT=%comment%" -T "PERFORMER=%albuminterpret%" -T "COMPOSER=%composer%" %source% -o %dest%

TOC извлечённого CD Трек | Старт | Длительность | Начальный сектор | Конечный сектор

1 | 0:00.00 | 6:11.52 | 0 | 27876
2 | 6:11.52 | 6:38.58 | 27877 | 57784
3 | 12:50.35 | 9:14.30 | 57785 | 99364
4 | 22:04.65 | 9:21.02 | 99365 | 141441
5 | 31:25.67 | 8:18.55 | 141442 | 178846
6 | 39:44.47 | 8:01.58 | 178847 | 214979
7 | 47:46.30 | 8:25.55 | 214980 | 252909
8 | 56:12.10 | 7:57.42 | 252910 | 288726
9 | 64:09.52 | 1:59.53 | 288727 | 297704

Характеристики диапазона извлечения и сообщения об ошибках

Выбранный диапазон Имя файла O:\!Rips\Haydn - The Seven Last Words of Our Saviour on the Cross.wav Пиковый уровень 100.0 %
Скорость извлечения 2.2 X
Качество диапазона 99.9 %
CRC теста 21E08112
CRC копии 21E08112
Копирование... OK

Ошибок не произошло


AccurateRip: сводка

Трек 1 : извлечено точно (доверие 3) [F52198F8] (AR v2)
Трек 2 : извлечено точно (доверие 3) [0BEB78C3] (AR v2)
Трек 3 : извлечено точно (доверие 3) [F36FB1CA] (AR v2)
Трек 4 : извлечено точно (доверие 3) [1E32123F] (AR v2)
Трек 5 : извлечено точно (доверие 3) [68E7B6F2] (AR v2)
Трек 6 : извлечено точно (доверие 3) [6CB17BC6] (AR v2)
Трек 7 : извлечено точно (доверие 3) [676CD1B6] (AR v2)
Трек 8 : извлечено точно (доверие 3) [A56F6D8A] (AR v2)
Трек 9 : извлечено точно (доверие 3) [FF1C2002] (AR v2)

Все треки извлечены точно

Конец отчёта

==== Контрольная сумма отчёта B8573DC8D2052C28EEDAC3A734BC68F540487ED6474C0B99D8B32795F3D4C3D4 ====

foobar2000 1.2 / Dynamic Range Meter 1.1.1
log date: 2015-10-08 13:57:45

Analyzed: Rosamunde Quartett / Haydn - The Seven Last Words of Our Saviour on the Cross

DR Peak RMS Duration Track

DR14 -2.51 dB -22.68 dB 6:12 01-Introduzione - Maestoso ed Adagio
DR14 -4.84 dB -25.24 dB 6:39 02-I. Largo
DR19 -3.82 dB -28.22 dB 9:14 03-II. Grave e cantabile
DR16 -3.45 dB -25.30 dB 9:21 04-III. Grave
DR14 -4.12 dB -23.70 dB 8:19 05-IV. Largo
DR13 -0.56 dB -21.13 dB 8:02 06-V. Adagio
DR14 -3.14 dB -23.63 dB 8:26 07-VI Lento
DR14 -5.06 dB -25.11 dB 7:58 08-VII. Largo
DR14 0.00 dB -17.14 dB 2:00 09-Il Terremoto - Presto e con tutta la forza

Number of tracks: 9
Official DR value: DR15

Samplerate: 44100 Hz
Channels: 2
Bits per sample: 16
Bitrate: 562 kbps
Codec: FLAC

Rosamunde Quartett - Joseph Haydn: The Seven Words (2001)

Rosamunde Quartett - Joseph Haydn: The Seven Words (2001)

All thanks to original releaser - jebiawio
Password: designol

DOWNLOAD
(Premium Recommended)


All above links are interchangable. No password

Direct Download

Tags: Rosamunde, Quartett, Joseph

Rosamunde Quartett - Joseph Haydn: The Seven Words (2001) Download via Hotfile Rapidshare Fileserve Megaupload & FileSonic, Rosamunde Quartett - Joseph Haydn: The Seven Words (2001) free torrent downloads included crack, serial, keygen.


Attention!Information

Members of Guest cannot leave comments.