Anathema - Judgement (1999) (Limited Edition)

Download Now

Anathema - Judgement (1999) (Limited Edition)

Anathema - Judgement (1999) (Limited Edition)
Rock | 1cd | EAC Rip | Flac + Cue + Log | covers
Music For Nations CDMFNX 250 | rel: 1999 | 440Mb

After the mildly disappointing Alternative 4, Anathema strikes back with Judgement. Upon first listen, the music and message seem a bit mellow for these doomy metal moguls. Second listen is like a magical rediscovery of a lost art form, the art of creating simple, depressing hard rock that is so emotionally expressive that it bends one's own constitution. Quiet and introspective on songs like "One Last Goodbye" and "Anyone, Anywhere," Anathema has the ability to spew forth raw, volcanic pain on cuts like "Judgement" and "Pitiless" -- the last of which contains the most heart-wrenching solo the Cavanagh brothers have ever penned.
Drummer John Douglas also surprises, making an amazing contribution to the album, by writing two of the most memorable songs, "Don't Look Too Far" and "Wings of God." The first is a gorgeous Porcupine Tree-like tune with somewhat upbeat female vocals and melodies. "Wings of God," on the other hand, seems to be a literal interpretation of the album cover, which appears to be God's blinding eye looking down upon the cursed world. One will be amazed at how unconventionally heavy this album really is. It even has a tendency to sap one's strength, upon repeated encounters. Judgement is truly a blinding masterpiece, which pierces the senses with its intensity. Hail Anathema's sorrowful return! ~Allmusic

Track listing
01. Deep (4:54)
02. Pitiless (3:11)
03. Forgotten Hopes (3:50)
04. Destiny Is Dead (1:46)
05. Make It Right (F.F.S.) (4:20)
06. One Last Goodbye (5:23)
07. Parisienne Moonlight (2:10)
08. Judgement (4:21)
09. Don't Look Too Far (4:57)
10. Emotional Winter (5:54)
11. Wings Of God (6:29)
12. Anyone, Anywhere (4:51)
13. 2000 & Gone (4:51)
14. Transacoustic (3:49)
~ (60:45)

Personnel
- Vincent Cavanagh - vocals, guitars
- John Douglas - drums
- Dave Pybus - bass
- Danny Cavanagh - guitars, keyboards, vocals on "Parisienne Moonlight"

Exact Audio Copy V1.0 beta 3 from 29. August 2011

Отчёт EAC об извлечении, выполненном 7. августа 2013, 19:18

Anathema / Judgement

Дисковод: Optiarc DVD RW AD-7173A Adapter: 1 ID: 0

Режим чтения : Достоверность
Использование точного потока : Да
Отключение кэша аудио : Да
Использование указателей C2 : Нет

Коррекция смещения при чтении : 48
Способность читать области Lead-in и Lead-out : Нет
Заполнение пропущенных сэмплов тишиной : Да
Удаление блоков с тишиной в начале и конце : Нет
При вычислениях CRC использовались нулевые сэмплы : Да
Интерфейс : Встроенный Win32-интерфейс для Win NT/2000

Выходной формат : Пользовательский кодировщик
Выбранный битрейт : 1024 kBit/s
Качество : Высокий
Добавление ID3-тега : Нет
Утилита сжатия : C:\Program Files\Exact Audio Copy\Flac\flac.exe
Дополнительные параметры : -V -8 -T "Date=%year%" -T "Genre=%genre%" %source%

TOC извлечённого CD Трек | Старт | Длительность | Начальный сектор | Конечный сектор

1 | 0:00.00 | 4:53.57 | 0 | 22031
2 | 4:53.57 | 3:10.55 | 22032 | 36336
3 | 8:04.37 | 3:50.33 | 36337 | 53619
4 | 11:54.70 | 1:46.30 | 53620 | 61599
5 | 13:41.25 | 4:19.47 | 61600 | 81071
6 | 18:00.72 | 5:23.18 | 81072 | 105314
7 | 23:24.15 | 2:09.60 | 105315 | 115049
8 | 25:34.00 | 4:20.47 | 115050 | 134596
9 | 29:54.47 | 4:56.55 | 134597 | 156851
10 | 34:51.27 | 5:54.20 | 156852 | 183421
11 | 40:45.47 | 6:29.00 | 183422 | 212596
12 | 47:14.47 | 4:50.58 | 212597 | 234404
13 | 52:05.30 | 4:50.52 | 234405 | 256206
14 | 56:56.07 | 3:49.28 | 256207 | 273409

Характеристики диапазона извлечения и сообщения об ошибках

Выбранный диапазон Имя файла C:\Documents and Settings\UserXP\Рабочий стол\-Morgul-\New\Anathema - Judgement\Anathema - Judgement.wav Пиковый уровень 98.8 %
Скорость извлечения 5.1 X
Качество диапазона 100.0 %
CRC теста AFEB7F80
CRC копии AFEB7F80
Копирование... OK

Ошибок не произошло


AccurateRip: сводка

Трек 1 : извлечено точно (доверие 12) 341E370 (AR v2)
Трек 2 : извлечено точно (доверие 12) [C5298D08] (AR v2)
Трек 3 : извлечено точно (доверие 12) [A2B7BEA2] (AR v2)
Трек 4 : извлечено точно (доверие 12) [AB5DCD81] (AR v2)
Трек 5 : извлечено точно (доверие 11) [4426930B] (AR v2)
Трек 6 : извлечено точно (доверие 11) [AC3FD482] (AR v2)
Трек 7 : извлечено точно (доверие 12) [801DBD01] (AR v2)
Трек 8 : извлечено точно (доверие 12) E91669B (AR v2)
Трек 9 : извлечено точно (доверие 11) [CB65D4F0] (AR v2)
Трек 10 : извлечено точно (доверие 11) [2DC674EC] (AR v2)
Трек 11 : извлечено точно (доверие 12) [ECC22732] (AR v2)
Трек 12 : извлечено точно (доверие 11) [FCAAE35E] (AR v2)
Трек 13 : извлечено точно (доверие 11) [17547C5B] (AR v2)
Трек 14 : извлечено точно (доверие 11) [987F92EB] (AR v2)

Все треки извлечены точно

Конец отчёта

==== Контрольная сумма отчёта D1325747053EA53DC8C011DFA457C2A3F2A3AEE82C1607417CC70BF84F4340EF ====

[CUETools log; Date: 2015.10.06. 15:15:46; Version: 2.1.5]
[CTDB TOCID: YYDJBUj.3HHWM8uph4GrwFU5tRM-] found.
Track | CTDB Status
1 | (25/25) Accurately ripped
2 | (25/25) Accurately ripped
3 | (25/25) Accurately ripped
4 | (25/25) Accurately ripped
5 | (25/25) Accurately ripped
6 | (25/25) Accurately ripped
7 | (25/25) Accurately ripped
8 | (24/25) Accurately ripped
9 | (25/25) Accurately ripped
10 | (25/25) Accurately ripped
11 | (25/25) Accurately ripped
12 | (25/25) Accurately ripped
13 | (25/25) Accurately ripped
14 | (24/25) Accurately ripped
[AccurateRip ID: 001d6574-013ef6b5-ca0e3d0e] found.
Track [ CRC | V2 ] Status
01 [e0da1510|b341e370] (29+20/49) Accurately ripped
02 [18e8cac5|c5298d08] (29+20/49) Accurately ripped
03 [60194d8a|a2b7bea2] (29+20/49) Accurately ripped
04 [7055c6a1|ab5dcd81] (29+20/49) Accurately ripped
05 [88a6c015|4426930b] (29+19/48) Accurately ripped
06 [93ad79d8|ac3fd482] (29+19/48) Accurately ripped
07 [609f2d7b|801dbd01] (29+20/49) Accurately ripped
08 [12e20c51|be91669b] (29+21/50) Accurately ripped
09 [a3f04aea|cb65d4f0] (29+19/48) Accurately ripped
10 [d48d13e0|2dc674ec] (29+19/48) Accurately ripped
11 [4f8756cb|ecc22732] (29+20/49) Accurately ripped
12 [912d4b73|fcaae35e] (29+19/48) Accurately ripped
13 [d6c1306a|17547c5b] (29+19/48) Accurately ripped
14 [18c897d2|987f92eb] (29+19/48) Accurately ripped

Track Peak [ CRC32 ] [W/O NULL] [ LOG ]
-- 98,8 [AFEB7F80] [C112E28B] CRC32
01 98,8 [767E8EC3] [02A55E65]
02 98,8 [D2805201] [3AE51B87]
03 98,8 [FC481287] [05D6201A]
04 98,8 [C5D4E763] [3890A6D7]
05 98,8 [5FFCD1BC] [D796C311]
06 98,8 [6D3342B1] [E7D5C406]
07 98,8 [C88AFAFD] [AB0FB964]
08 98,8 [48ADB014] [000E370D]
09 98,8 [96EA3DB6] [42129902]
10 98,8 [2D48F6F3] [E37DB8F5]
11 98,8 [120DC64D] [DC2F586D]
12 98,8 [98A727A7] [7BD47239]
13 98,8 [952FAA75] [04A4E3FB]
14 64,1 27F3A4F [A49D28F3]

Thx to -Morgul-
password: asd
DOWNLOAD LINKS:
(Premium Recommended)


All above links are interchangable. No password

Direct Download

Tags: Anathema, Judgement, Limited

Anathema - Judgement (1999) (Limited Edition) Download via Hotfile Rapidshare Fileserve Megaupload & FileSonic, Anathema - Judgement (1999) (Limited Edition) free torrent downloads included crack, serial, keygen.


Attention!Information

Members of Guest cannot leave comments.