Funkadelic - One Nation Under A Groove (1978)

Download Now

Funkadelic - One Nation Under A Groove (1978)

Funkadelic - One Nation Under A Groove (1978)
Funk | 1cd | EAC Rip | Ape + Cue + Log | covers
Priority P2 53872 | rel: 1993 | 440Mb

One Nation Under a Groove was not only Funkadelic's greatest moment, it was their most popular album, bringing them an unprecedented commercial breakthrough by going platinum and spawning a number one R&B smash in the title track. It was a landmark LP for the so-called "black rock" movement, best-typified in the statement of purpose "Who Says a Funk Band Can't Play Rock?!"; more than that, though, the whole album is full of fuzzed-out, Hendrix-style guitar licks, even when the music is clearly meant for the dancefloor. This may not have been a new concept for Funkadelic, but it's executed here with the greatest clarity and accessibility in their catalog.
Furthermore, out of George Clinton's many conceptual albums (serious and otherwise), One Nation Under a Groove is the pinnacle of his political consciousness. It's unified by a refusal to acknowledge boundaries -- social, sexual, or musical -- and, by extension, the uptight society that created them. The tone is positive, not militant -- this funk is about community, freedom, and independence, and you can hear it in every cut (even the bizarre, outrageously scatological "P.E. Squad"). The title cut is one of funk's greatest anthems, and "Groovallegiance" and the terrific "Cholly" both dovetail nicely with its concerns. The aforementioned "Who Says a Funk Band Can't Play Rock?!" is a seamless hybrid that perfectly encapsulates the band's musical agenda, while "Into You" is one of their few truly successful slow numbers. The original LP included a three-song bonus EP featuring the heavy riff rock of "Lunchmeataphobia," an unnecessary instrumental version of "P.E. Squad," and a live "Maggot Brain"; these tracks were appended to the CD reissue. In any form, One Nation Under a Groove is the best realization of Funkadelic's ambitions, and one of the best funk albums ever released. ~Allmusic

Track listing
01. One Nation Under A Groove (7:29)
02. Groovallegiance (7:00)
03. Who Says A Funk Band Can't Play Rock?! (6:19)
04. Promentalshitbackwashpsychosis Enema Squad (The DooDoo Chasers) (10:47)
05. Into You (5:43)
06. Cholly (Funk Get Ready To Roll!) (4:28)
07. Lunchmeataphobia (Think, It Ain't Illegal Yet!) (4:18)
08. P.E. Squad/DooDoo Chasers (Going All-TheWay-Off Instrumental Version) (4:19)
09. Maggot Brain (8:26)
~ (58:50)

Exact Audio Copy V0.99 prebeta 4 from 23. January 2008

EAC extraction logfile from 6. April 2009, 20:25

Funkadelic / One Nation Under A Groove

Used drive : Optiarc DVD RW AD-5170A Adapter: 0 ID: 1

Read mode : Secure
Utilize accurate stream : Yes
Defeat audio cache : Yes
Make use of C2 pointers : No

Read offset correction

: 48
Overread into Lead-In and Lead-Out : No
Fill up missing offset samples with silence : Yes
Delete leading and trailing silent blocks : No
Null samples used in CRC calculations : Yes
Used interface
: Installed external ASPI interface

Used output format : Internal WAV Routines
Sample format : 44.100 Hz; 16 Bit; Stereo

TOC of the extracted CD Track | Start | Length | Start sector | End sector
--1 | 0:00.00 | 7:28.45 | 0 | 33644 2 | 7:28.45 | 7:00.05 | 33645 | 65149 3 | 14:28.50 | 6:18.70 | 65150 | 93569 4 | 20:47.45 | 10:46.67 | 93570 | 142086 5 | 31:34.37 | 5:43.20 | 142087 | 167831 6 | 37:17.57 | 4:28.30 | 167832 | 187961 7 | 41:46.12 | 4:18.15 | 187962 | 207326 8 | 46:04.27 | 4:18.73 | 207327 | 226749 9 | 50:23.25 | 8:26.37 | 226750 | 264736

Range status and errors

Selected range Filename F:\Upload\Music\Funkadelic - One Nation Under A Groove (1978 Tercer Mundo)\Funkadelic - One Nation Under A Groove.wav Peak level 97.2 %
Range quality 99.9 %
Copy CRC B9F63641
Copy OK

No errors occurred


AccurateRip summary

Track 1 accurately ripped (confidence 13) [212B3826]
Track 2 accurately ripped (confidence 12) [CAE77675]
Track 3 accurately ripped (confidence 12) [0FAB0757]
Track 4 accurately ripped (confidence 13) [16D11508]
Track 5 accurately ripped (confidence 12) [DAA12056]
Track 6 accurately ripped (confidence 13) [54460F2D]
Track 7 accurately ripped (confidence 13) [79220701]
Track 8 accurately ripped (confidence 13) [EAD2C0A5]
Track 9 accurately ripped (confidence 13) [210F4451]

All tracks accurately ripped

End of status report

[CUETools log; Date: 2015.10.07. 11:26:23; Version: 2.1.5]
[CTDB TOCID: Po2Ktd3o1AJ5wg2IeE.o03YLWUc-] found.
Track | CTDB Status
1 | (16/16) Accurately ripped
2 | (16/16) Accurately ripped
3 | (16/16) Accurately ripped
4 | (16/16) Accurately ripped
5 | (16/16) Accurately ripped
6 | (16/16) Accurately ripped
7 | (15/16) Accurately ripped
8 | (16/16) Accurately ripped
9 | (16/16) Accurately ripped
[AccurateRip ID: 00153204-0098d896-800dc909] found.
Track [ CRC | V2 ] Status
01 [212b3826|4d144c6b] (22+16/51) Accurately ripped
02 [cae77675|edf4cd63] (22+16/51) Accurately ripped
03 [0fab0757|abe2b706] (22+16/51) Accurately ripped
04 [16d11508|263d72cc] (23+16/52) Accurately ripped
05 [daa12056|0a48ca5e] (22+16/51) Accurately ripped
06 [54460f2d|53ad8fe2] (23+17/53) Accurately ripped
07 [79220701|f546fb35] (23+15/50) Accurately ripped
08 [ead2c0a5|344cffc4] (23+15/50) Accurately ripped
09 [210f4451|389f41ac] (22+14/48) Accurately ripped
Offsetted by -936:
01 [e06fe796] (09/51) Accurately ripped
02 [20709235] (09/51) Accurately ripped
03 [95840b67] (09/51) Accurately ripped
04 [8f977298] (09/52) Accurately ripped
05 [8bd159a6] (08/51) Accurately ripped
06 [fbd4e70d] (09/53) Accurately ripped
07 [5933a111] (08/50) Accurately ripped
08 [0f8ab5e5] (08/50) Accurately ripped
09 [fe7a16e1] (08/48) Accurately ripped

Track Peak [ CRC32 ] [W/O NULL] [ LOG ]
-- 97,2 9F63641 [F40F7049] CRC32
01 97,2 [88CBF4E8] [DBFBFCFE]
02 97,2 [9FE8B8E3] [2108B13C]
03 97,2 [3D526A77] [A9BF7BD5]
04 97,2 [98FABE38] [D3733699]
05 97,2 [4F212FB3] [74F72726]
06 97,2 [9C9CD8EC] [2E0CDAEF]
07 94,6 [4903DF60] [4A0794A0]
08 95,1 [028E4E30] [A14BD47E]
09 95,1 [CA3614FA] [F52AA10A]

original uploader unknown, found in my archive
password: asd
Download Links:
(Premium Recommended)


All above links are interchangable. No password

Direct Download

Tags: Funkadelic, Nation, Groove

Funkadelic - One Nation Under A Groove (1978) Download via Hotfile Rapidshare Fileserve Megaupload & FileSonic, Funkadelic - One Nation Under A Groove (1978) free torrent downloads included crack, serial, keygen.


Attention!Information

Members of Guest cannot leave comments.