Big Life - Big Life (2011)

Download Now

Big Life - Big Life (2011)

Big Life - Big Life (2011)
EAC Rip | FLAC (Img) + Cue + Log ~ 459 Mb | MP3 CBR320 ~ 149 Mb
Scans (JPG, 600 dpi) ~ 58 Mb | RAR 5% Recovery
Melodic Hard Rock, AOR | AOR Heaven #AORH00054

"This self titled album, "Big Life" is the brand new collaboration of two renowned AOR musicians: Lead singer Mark Thompson ("Praying Mantis") and guitarist Steve Newman ("Newman"); drums on the album are performed by Rob Mc Ewan."

All Music
***************

Big Life - Big Life (2011)

Track List:

01. Dying Day [05:03]
02. Close To You [04:18]
03. Better Man [04:52]
04. Calling [04:27]
05. I'll Still Be Here [04:31]
06. Feel Alive [04:28]
07. Deep Water [06:42]
08. At The End Of My Rainbow [04:08]
09. Leaves [04:28]
10. Stop In Time [05:47]
11. Takin' Me Down [04:08]
12. Nothing Without You [04:54]
13. Hands Across The Water [04:23]

Exact Audio Copy V1.0 beta 3 from 29. August 2011

EAC extraction logfile from 28. March 2012, 0:31

Big Life / Big Life

Used drive : SlimtypeDVD A DS8A5SH Adapter: 0 ID: 1

Read mode : Secure
Utilize accurate stream : Yes
Defeat audio cache : Yes
Make use of C2 pointers : No

Read offset correction

: 6
Overread into Lead-In and Lead-Out : No
Fill up missing offset samples with silence : Yes
Delete leading and trailing silent blocks : No
Null samples used in CRC calculations : Yes
Used interface
: Native Win32 interface for Win NT & 2000

Used output format : User Defined Encoder
Selected bitrate : 320 kBit/s
Quality : High
Add ID3 tag : No
Command line compressor : C:\Program Files (x86)\Exact Audio Copy\Flac\flac.exe
Additional command line options : -V -8 -T "Date=%year%" -T "Genre=%genre%" %source%

TOC of the extracted CD Track | Start | Length | Start sector | End sector
--1 | 0:00.00 | 5:02.03 | 0 | 22652 2 | 5:02.03 | 4:17.31 | 22653 | 41958 3 | 9:19.34 | 4:51.27 | 41959 | 63810 4 | 14:10.61 | 4:26.04 | 63811 | 83764 5 | 18:36.65 | 4:30.14 | 83765 | 104028 6 | 23:07.04 | 4:27.24 | 104029 | 124077 7 | 27:34.28 | 6:41.59 | 124078 | 154211 8 | 34:16.12 | 4:07.04 | 154212 | 172740 9 | 38:23.16 | 4:27.08 | 172741 | 192773
10 | 42:50.24 | 5:46.53 | 192774 | 218776
11 | 48:37.02 | 4:07.11 | 218777 | 237312
12 | 52:44.13 | 4:53.16 | 237313 | 259303
13 | 57:37.29 | 4:22.21 | 259304 | 278974

Range status and errors

Selected range Filename D:\My Music\Big Life - 2011 Big Life\Big Life - Big Life.wav Peak level 97.7 %
Extraction speed 4.6 X
Range quality 100.0 %
Test CRC 89FECEB0
Copy CRC 89FECEB0
Copy OK

No errors occurred


AccurateRip summary

Track 1 not present in database
Track 2 not present in database
Track 3 not present in database
Track 4 not present in database
Track 5 not present in database
Track 6 not present in database
Track 7 not present in database
Track 8 not present in database
Track 9 not present in database
Track 10 not present in database
Track 11 not present in database
Track 12 not present in database
Track 13 not present in database

None of the tracks are present in the AccurateRip database

End of status report

==== Log checksum 8AD1A02992EA5C9DAAE39B5EB41CACF4856807ECCA2BBE3F91641BE94E30D470 ====

foobar2000 1.2.6 / Dynamic Range Meter 1.1.1
log date: 2015-10-10 01:34:13

Analyzed: Big Life / Big Life

DR Peak RMS Duration Track

DR6 -0.20 dB -7.72 dB 5:02 01-Dying Day
DR6 -0.20 dB -7.10 dB 4:17 02-Close To You
DR6 -0.20 dB -8.45 dB 4:51 03-Better Man
DR6 -0.20 dB -8.01 dB 4:26 04-Calling
DR8 -0.20 dB -10.18 dB 4:30 05-I'll Still Be Here
DR6 -0.20 dB -7.74 dB 4:27 06-Feel Alive
DR7 -0.20 dB -10.63 dB 6:42 07-Deep Water
DR7 -0.20 dB -8.77 dB 4:07 08-At The End Of My Rainbow
DR8 -0.20 dB -11.21 dB 4:27 09-Leaves
DR8 -0.20 dB -11.64 dB 5:47 10-Stop In Time
DR6 -0.20 dB -7.81 dB 4:07 11-Takin' Me Down
DR9 -1.20 dB -13.57 dB 4:53 12-Nothing Without You
DR7 -0.20 dB -8.59 dB 4:22 13-Hands Across The Water

Number of tracks: 13
Official DR value: DR7

Samplerate: 44100 Hz
Channels: 2
Bits per sample: 16
Bitrate: 987 kbps
Codec: FLAC

[CUETools log; Date: 10.10.2015 1:34:08; Version: 2.1.5]
[CTDB TOCID: rIkSaoFynndP_pI3zK0MD0T2GGg-] found.
Track | CTDB Status
1 | (2/2) Accurately ripped
2 | (2/2) Accurately ripped
3 | (2/2) Accurately ripped
4 | (2/2) Accurately ripped
5 | (2/2) Accurately ripped
6 | (2/2) Accurately ripped
7 | (2/2) Accurately ripped
8 | (2/2) Accurately ripped
9 | (2/2) Accurately ripped
10 | (2/2) Accurately ripped
11 | (2/2) Accurately ripped
12 | (2/2) Accurately ripped
13 | (2/2) Accurately ripped
[AccurateRip ID: 001dd257-012ad7d7-b90e870d] found.
Track [ CRC | V2 ] Status
01 [7c7b323a|6c7001a3] (0+1/1) Accurately ripped
02 [4cf339f7|da8cbaca] (0+1/1) Accurately ripped
03 [7bebd071|52a07264] (0+1/1) Accurately ripped
04 [35693a8a|1f077053] (0+1/1) Accurately ripped
05 [8ac6c187|a04e42d0] (0+1/1) Accurately ripped
06 [ccf638f1|8ee6dc8c] (0+1/1) Accurately ripped
07 [5b5c9ebe|1dd26d65] (0+1/1) Accurately ripped
08 [86acd086|678073ad] (0+1/1) Accurately ripped
09 [a7711dba|1826b855] (0+1/1) Accurately ripped
10 [42aa9cec|477f8b02] (0+1/1) Accurately ripped
11 [c17daa15|8d58e785] (0+1/1) Accurately ripped
12 [34173d89|07b80f29] (0+1/1) Accurately ripped
13 [e1c6f18a|a5ad96e4] (0+1/1) Accurately ripped

Track Peak [ CRC32 ] [W/O NULL] [ LOG ]
-- 97,7 [89FECEB0] [460C373E] CRC32
01 97,7 [72E82250] [488C7F3B]
02 97,7 [EA826432] [D4369A9D]
03 97,7 [72792AC9] [73F2C812]
04 97,7 [482B7EC8] [725F8BD6]
05 97,7 [AF9D4656] [DF639172]
06 97,7 [3027C0BA] [714C77F5]
07 97,7 [446E988B] [D9E2B10C]
08 97,7 [31B251B0] [0575D5CF]
09 97,7 [0A6C4AA8] [654E697F]
10 97,7 [0D321699] [1C87EB1D]
11 97,7 [FAF5E155] [1DEFCF3C]
12 87,0 [4CBBD7C0] [92F0EB35]
13 97,7 [33206602] [F58858FA]

Big Life - Big Life (2011)


DOWNLOAD LINKS:
(Premium Recommended)


All above links are interchangable. No password

Direct Download

Big Life - Big Life (2011) Download via Hotfile Rapidshare Fileserve Megaupload & FileSonic, Big Life - Big Life (2011) free torrent downloads included crack, serial, keygen.


Attention!Information

Members of Guest cannot leave comments.