Atelier Schola Cantorum Vol. 7: Reimann, Brass, Trojahn, Stuppner, Castiglioni, Huber (1994)

Download Now

Atelier Schola Cantorum Vol. 7: Reimann, Brass, Trojahn, Stuppner, Castiglioni, Huber (1994)

Atelier Schola Cantorum Vol. 7: Reimann, Brass, Trojahn, Stuppner, Castiglioni, Huber (1994)
Classical/Contemporary | FLAC lossless | cuesheets+log | covers+booklet | 77m43s | 326mb
Label: Cadenza | cat. no. 800897

Volume 7, with only one volume left to go. That will be vol. 8 containing Heinz Holliger's Scardanelli-Zyklus, which is a 3cd in this version.

Tracks:

01. Aribert Reimann - John III,16 (1975) [0:11:45.66]
02. Nikolaus Brass - Traumrede (1981) [0:18:38.00]
03. Manfred Trojahn - Aubade (1987) [0:02:22.00]
04. Hubert Stuppner - Vier Liebeslieder - I. Frölich, zärtlich, liplich [0:02:03.49]
05. Hubert Stuppner - Vier Liebeslieder - II. Ach, senliches Leyden [0:03:00.00]
06. Hubert Stuppner - Vier Liebeslieder - III. Kom, liepster Man [0:03:53.00]
07. Hubert Stuppner - Vier Liebeslieder - IV. Der May mit lieber Zahl [0:01:39.00]
08. Niccolò Castiglioni - Quodlibet aus "Figure" (1965) [0:04:20.00]
09. Niccolò Castiglioni - Hymne (1988-89) [0:13:47.50]
10. Klaus Huber - ... ñudo que ainsi juntáis (1984) [0:16:15.06]

Performers:

Schola Cantorum Stuttgart - Clytus Gottwald

Exact Audio Copy V1.0 beta 3 from 29. August 2011

EAC extraction logfile from 9. October 2015, 0:39

Schola Cantorum Stuttgart, Clytus Gottwald / Atelier Schola Cantorum 7

Used drive : TSSTcorpCDDVDW SH-216AB Adapter: 0 ID: 0

Read mode : Secure
Utilize accurate stream : Yes
Defeat audio cache : Yes
Make use of C2 pointers : No

Read offset correction

: 6
Overread into Lead-In and Lead-Out : No
Fill up missing offset samples with silence : Yes
Delete leading and trailing silent blocks : No
Null samples used in CRC calculations : Yes
Used interface
: Native Win32 interface for Win NT & 2000
Gap handling
: Appended to previous track

Used output format : User Defined Encoder
Selected bitrate : 768 kBit/s
Quality : High
Add ID3 tag : No
Command line compressor : C:\Program Files (x86)\FLAC Frontend\tools\flac.exe
Additional command line options : -8 -V -T "ARTIST=%artist%" -T "TITLE=%title%" -T "ALBUM=%albumtitle%" -T "DATE=%year%" -T "TRACKNUMBER=%tracknr%" -T "GENRE=%genre%" -T "PERFORMER=%albuminterpret%" -T "COMPOSER=%composer%" %haslyrics%--tag-from-file=LYRICS="%lyricsfile%"%haslyrics% -T "ALBUMARTIST=%albumartist%" -T "DISCNUMBER=%cdnumber%" -T "TOTALDISCS=%totalcds%" -T "TOTALTRACKS=%numtracks%" -T "COMMENT=%comment%" %source% -o %dest%

TOC of the extracted CD Track | Start | Length | Start sector | End sector
--1 | 0:00.00 | 11:45.50 | 0 | 52924 2 | 11:45.50 | 18:38.00 | 52925 | 136774 3 | 30:23.50 | 2:22.00 | 136775 | 147424 4 | 32:45.50 | 2:03.37 | 147425 | 156686 5 | 34:49.12 | 3:00.00 | 156687 | 170186 6 | 37:49.12 | 3:53.00 | 170187 | 187661 7 | 41:42.12 | 1:39.00 | 187662 | 195086 8 | 43:21.12 | 4:20.00 | 195087 | 214586 9 | 47:41.12 | 13:47.38 | 214587 | 276649
10 | 61:28.50 | 16:15.05 | 276650 | 349779

Track 1 Filename H:\Users\astarte\03. POST\atelier schola cantorum 7\01 Aribert Reimann - John III,16 (1975).wav Pre-gap length 0:00:02.00 Peak level 77.1 %
Extraction speed 2.3 X
Track quality 100.0 %
Copy CRC 6730B9E8
Track not present in AccurateRip database
Copy OK

Track 2 Filename H:\Users\astarte\03. POST\atelier schola cantorum 7\02 Nikolaus Brass - Traumrede (1981).wav Pre-gap length 0:00:03.93 Peak level 85.1 %
Extraction speed 3.1 X
Track quality 100.0 %
Copy CRC 0665CCC8
Track not present in AccurateRip database
Copy OK

Track 3 Filename H:\Users\astarte\03. POST\atelier schola cantorum 7\03 Manfred Trojahn - Aubade (1987).wav Pre-gap length 0:00:04.66 Peak level 53.9 %
Extraction speed 2.8 X
Track quality 100.0 %
Copy CRC 095C442C
Track not present in AccurateRip database
Copy OK

Track 4 Filename H:\Users\astarte\03. POST\atelier schola cantorum 7\04 Hubert Stuppner - Vier Liebeslieder - I. Frölich, zärtlich, liplich.wav Pre-gap length 0:00:04.60 Peak level 57.2 %
Extraction speed 2.1 X
Track quality 99.9 %
Copy CRC C3982485
Track not present in AccurateRip database
Copy OK

Track 5 Filename H:\Users\astarte\03. POST\atelier schola cantorum 7\05 Hubert Stuppner - Vier Liebeslieder - II. Ach, senliches Leyden.wav Pre-gap length 0:00:00.96 Peak level 47.5 %
Extraction speed 3.0 X
Track quality 100.0 %
Copy CRC 61843324
Track not present in AccurateRip database
Copy OK

Track 6 Filename H:\Users\astarte\03. POST\atelier schola cantorum 7\06 Hubert Stuppner - Vier Liebeslieder - III. Kom, liepster Man.wav Pre-gap length 0:00:01.00 Peak level 41.0 %
Extraction speed 3.3 X
Track quality 100.0 %
Copy CRC C7B7A060
Track not present in AccurateRip database
Copy OK

Track 7 Filename H:\Users\astarte\03. POST\atelier schola cantorum 7\07 Hubert Stuppner - Vier Liebeslieder - IV. Der May mit lieber Zahl.wav Pre-gap length 0:00:01.46 Peak level 71.1 %
Extraction speed 2.8 X
Track quality 100.0 %
Copy CRC B6F50502
Track not present in AccurateRip database
Copy OK

Track 8 Filename H:\Users\astarte\03. POST\atelier schola cantorum 7\08 Niccolò Castiglioni - Quodlibet aus ''Figure'' (1965).wav Pre-gap length 0:00:03.40 Peak level 59.0 %
Extraction speed 3.5 X
Track quality 100.0 %
Copy CRC 01361B9E
Track not present in AccurateRip database
Copy OK

Track 9 Filename H:\Users\astarte\03. POST\atelier schola cantorum 7\09 Niccolò Castiglioni - Hymne (1988-89).wav Pre-gap length 0:00:02.66 Peak level 92.0 %
Extraction speed 4.1 X
Track quality 100.0 %
Copy CRC 2A2CC9E1
Track not present in AccurateRip database
Copy OK

Track 10 Filename H:\Users\astarte\03. POST\atelier schola cantorum 7\10 Klaus Huber - ... ñudo que ainsi juntáis (1984).wav Pre-gap length 0:00:03.66 Peak level 96.0 %
Extraction speed 4.2 X
Track quality 99.9 %
Copy CRC 44CFBF9D
Track not present in AccurateRip database
Copy OK

None of the tracks are present in the AccurateRip database

No errors occurred

End of status report

==== Log checksum 1389DA7067A023149830AA4B175DBD81E91FA6D4BAD7582E03654DA9C0DF1E4E ====
DOWNLOAD LINKS:
Buy Premium To Support Me & Get Resumable Support & Max Speed


Links are Interchangeable - No Password - Single Extraction

Direct Download

Tags: Atelier, Schola, Cantorum, Reimann, Trojahn, Stuppner, Castiglioni

Atelier Schola Cantorum Vol. 7: Reimann, Brass, Trojahn, Stuppner, Castiglioni, Huber (1994) Download via Hotfile Rapidshare Fileserve Megaupload & FileSonic, Atelier Schola Cantorum Vol. 7: Reimann, Brass, Trojahn, Stuppner, Castiglioni, Huber (1994) free torrent downloads included crack, serial, keygen.


Attention!Information

Members of Guest cannot leave comments.