Quatuor Diotima - George Onslow: String Quartets Op. 54-56 (2009)

Download Now

Quatuor Diotima - George Onslow: String Quartets Op. 54-56 (2009)

Quatuor Diotima - George Onslow: String Quartets Op. 54-56 (2009)
EAC | FLAC | Image (Cue&Log) ~ 388 Mb (incl 5%) | Mp3 (CBR320) ~ 197 Mb (incl 5%) | Scans included
Genre: Classical, Chamber Music | Label: Naïve | # V 5200 | Time: 01:17:42

"Fans of the string quartets by Beethoven, Schubert, Schumann, and Mendelssohn should by all means try this disc of string quartets by George Onslow. British-born and Bohemian-trained composer spent most of his career in France, and aside from their tonal language and their four-movement structure, his quartets have little in common with his German contemporaries. In fact, they have little in common with the music of his French contemporaries, who concentrated mostly on stage works. But in these overwhelming persuasive performances by the Quatuor Diotima, Onslow's quartets come across as fully formed, wholly confident, and enormously expressive works. There is tremendous power in the fast movements: the rip-roaring Scherzo, from his D minor Quartet, Op. 55; immense pathos in the slow movements: the heartbreaking Andante con variazioni from the E flat Quartet, Op. 54; and awesome intensity in the opening movements: the monumental Allegro maestoso ed espressivo from the C minor Quartet, Op. 56."



Quatuor Diotima:

- Yun-Peng Zhao, violin
- Naaman Sluchin, violin
- Franck Chevalier, viola
- Pierre Morlet, cello

Tracklist:

String Quartet No.28 in E flat major, Op.54:

01. 1. Introduzione. Adagio - Allegro moderato (07:12)
02. 2. Preghiera. Andante con variazioni (10:17)
03. 3. Scherzo. Allegro (03:01)
04. 4. Finale. Allegro non troppo (04:36)

String Quartet No.29 in D minor, Op.55:

05. 1. Allegro (07:27)
06. 2. Scherzo. Presto (05:31)
07. 3. Adagio cantabile (08:44)
08. 4. Finale. Allegro vivace (05:27)

String Quartet No.30 in C minor, Op.56:

09. 1. Allegro maestoso ed espressivo (07:59)
10. 2. Minuetto. Moderato (04:14)
11. 3. Adagio cantabile e sostenuto (06:09)
12. 4. Finale. Vivace (07:00)


Exact Audio Copy V1.0 beta 3 from 29. August 2011

EAC extraction logfile from 11. July 2012, 17:05

Quatuor Diotima / Onslow - String Quartets Op. 54, 55 & 56

Used drive : Optiarc DVD+-RW AD-5170S Adapter: 0 ID: 1

Read mode : Secure
Utilize accurate stream : Yes
Defeat audio cache : Yes
Make use of C2 pointers : No

Read offset correction

: 48
Overread into Lead-In and Lead-Out : No
Fill up missing offset samples with silence : Yes
Delete leading and trailing silent blocks : No
Null samples used in CRC calculations : Yes
Used interface
: Native Win32 interface for Win NT & 2000

Used output format : User Defined Encoder
Selected bitrate : 896 kBit/s
Quality : High
Add ID3 tag : Yes
Command line compressor : C:\Program Files\Exact Audio Copy\Flac\flac.exe
Additional command line options : -V -8 %source%

TOC of the extracted CD Track | Start | Length | Start sector | End sector
--1 | 0:00.00 | 7:12.59 | 0 | 32458 2 | 7:12.59 | 10:17.47 | 32459 | 78780 3 | 17:30.31 | 3:01.05 | 78781 | 92360 4 | 20:31.36 | 4:36.36 | 92361 | 113096 5 | 25:07.72 | 7:27.25 | 113097 | 146646 6 | 32:35.22 | 5:31.09 | 146647 | 171480 7 | 38:06.31 | 8:44.25 | 171481 | 210805 8 | 46:50.56 | 5:27.62 | 210806 | 235392 9 | 52:18.43 | 7:59.04 | 235393 | 271321
10 | 60:17.47 | 4:14.18 | 271322 | 290389
11 | 64:31.65 | 6:09.67 | 290390 | 318131
12 | 70:41.57 | 7:00.01 | 318132 | 349632

Range status and errors

Selected range Filename D:\temp\pics\Onslow - String Quartets Op. 54, 55 & 56\Onslow - String Quartets Op. 54, 55 & 56.wav Peak level 100.0 %
Extraction speed 4.5 X
Range quality 100.0 %
Test CRC D8453752
Copy CRC D8453752
Copy OK

No errors occurred

End of status report

==== Log checksum 6CB6246C6A838022A7B7EC815325003A10D58842F6E9505955F5BCE426A11DF1 ====

[CUETools log; Date: 09.10.2015 15:50:40; Version: 2.1.4]
[CTDB TOCID: h7gYwjcLr1fdG8esqdabKcHznKA-] found.
Track | CTDB Status
1 | (3/3) Accurately ripped
2 | (3/3) Accurately ripped
3 | (3/3) Accurately ripped
4 | (3/3) Accurately ripped
5 | (3/3) Accurately ripped
6 | (3/3) Accurately ripped
7 | (3/3) Accurately ripped
8 | (3/3) Accurately ripped
9 | (3/3) Accurately ripped
10 | (3/3) Accurately ripped
11 | (3/3) Accurately ripped
12 | (3/3) Accurately ripped
[AccurateRip ID: 00234166-01466984-a112350c] found.
Track [ CRC | V2 ] Status
01 [651e0323|78ccca8e] (07+04/11) Accurately ripped
02 [13a12839|6c7a54e4] (07+03/10) Accurately ripped
03 [0f088ce1|6aebddb1] (08+04/12) Accurately ripped
04 [5fb92dd7|c24c357a] (08+04/12) Accurately ripped
05 [5d78bafa|c873b46d] (08+04/12) Accurately ripped
06 [24dd21dd|e28648d7] (07+04/11) Accurately ripped
07 [e7e9d0cd|0dc5d045] (07+04/11) Accurately ripped
08 [dafdf34d|82cf2c29] (07+04/11) Accurately ripped
09 [5a12b1e2|84d02f17] (07+03/10) Accurately ripped
10 [100346ae|92e485e1] (08+04/12) Accurately ripped
11 [9ee72fb2|e54157e6] (06+04/10) Accurately ripped
12 [3681914e|a24b216d] (08+04/12) Accurately ripped

Track Peak [ CRC32 ] [W/O NULL] [ LOG ]
-- 100,0 [D8453752] [A76539F8] CRC32
01 81,0 [8B4BD116] [0E354A03]
02 92,8 B3992E4 [6BF7B5AF]
03 92,3 [3B942965] [9DC6EFC2]
04 82,8 [56C7FB43] [CBC0ACAD]
05 93,5 [9F0682F5] [2EE7BF89]
06 84,4 [D4C98886] [9C198D4D]
07 89,2 [9B2D06FC] [4BEBC19F]
08 97,1 [F4DE46EE] 98045CA
09 95,7 BC371B3 [354060B6]
10 100,0 [11C04304] [E412EB98]
11 65,6 [6ED119DC] [63A29226]
12 99,1 [005BA723] [7F0E4C25]

foobar2000 1.2 / Dynamic Range Meter 1.1.1
log date: 2015-10-09 14:29:49

Analyzed: Quatuor Diotima / Onslow - String Quartets Op. 54, 55 & 56

DR Peak RMS Duration Track

DR14 -1.83 dB -21.42 dB 7:13 01-String Quartet No.28 in E flat major, Op.54 - 1. Introduzione. Adagio - Allegro moderato
DR15 -0.64 dB -22.64 dB 10:18 02-String Quartet No.28 in E flat major, Op.54 - 2. Preghiera. Andante con variazioni
DR15 -0.69 dB -21.92 dB 3:01 03-String Quartet No.28 in E flat major, Op.54 - 3. Scherzo. Allegro
DR14 -1.64 dB -20.35 dB 4:36 04-String Quartet No.28 in E flat major, Op.54 - 4. Finale. Allegro non troppo
DR15 -0.58 dB -21.20 dB 7:27 05-String Quartet No.29 in D minor, Op.55 - 1. Allegro
DR16 -1.47 dB -22.86 dB 5:31 06-String Quartet No.29 in D minor, Op.55 - 2. Scherzo. Presto
DR15 -0.99 dB -22.57 dB 8:44 07-String Quartet No.29 in D minor, Op.55 - 3. Adagio cantabile
DR13 -0.25 dB -19.46 dB 5:28 08-String Quartet No.29 in D minor, Op.55 - 4. Finale. Allegro vivace
DR15 -0.38 dB -20.96 dB 7:59 09-String Quartet No.30 in C minor, Op.56 - 1. Allegro maestoso ed espressivo
DR15 0.00 dB -23.00 dB 4:14 10-String Quartet No.30 in C minor, Op.56 - 2. Minuetto. Moderato
DR14 -3.66 dB -23.72 dB 6:10 11-String Quartet No.30 in C minor, Op.56 - 3. Adagio cantabile e sostenuto
DR15 -0.07 dB -19.56 dB 7:00 12-String Quartet No.30 in C minor, Op.56 - 4. Finale. Vivace

Number of tracks: 12
Official DR value: DR15

Samplerate: 44100 Hz
Channels: 2
Bits per sample: 16
Bitrate: 647 kbps
Codec: FLAC

Quatuor Diotima - George Onslow: String Quartets Op. 54-56 (2009)

All thanks to original releaser - A-Z
Password: designol

DOWNLOAD
(Premium Recommended)


All above links are interchangable. No password

Direct Download

Tags: Quatuor, Diotima, George, Onslow, String, Quartets

Quatuor Diotima - George Onslow: String Quartets Op. 54-56 (2009) Download via Hotfile Rapidshare Fileserve Megaupload & FileSonic, Quatuor Diotima - George Onslow: String Quartets Op. 54-56 (2009) free torrent downloads included crack, serial, keygen.


Attention!Information

Members of Guest cannot leave comments.