Herbie Mann - The Beat Goes On (1967) {2013 Japan 24-bit Remaster} [Jazz Best Collection 1000 Series]

Download Now


Herbie Mann - The Beat Goes On (1967) {2013 Japan 24-bit Remaster} [Jazz Best Collection 1000 Series]
Herbie Mann - The Beat Goes On (1967) {2013 Japan 24-bit Remaster} [Jazz Best Collection 1000 Series]
EAC rip (secure mode) | FLAC (tracks)+CUE+LOG -> 208 Mb | MP3 @320 -> 75 Mb
Full Artwork @ 300 dpi (jpg) -> 9 Mb | 5% repair rar | 24-bit remaster
© 2013 Atlantic / Rhino / WEA / Warner Japan | WPCR-27462 | Jazz Best Collection 1000 Series
Jazz / Jazz Funk / Soul Jazz / Flute

"The beat goes on, and Herbie Mann gets plenty darn groovy - serving up these short, soulful tunes that really pack a sweet little punch - thanks in part to some excellent work on vibes by the young Roy Ayers! Ayers' rings out next to Herbie's flute in a very cool way - almost Latin, but a bit groovier overall, with some echoes of bossa and 60s soundtrack jazz - all mixed with deeper soul currents that are very much in the best 60s jazz spirit of Atlantic Records! Jimmy Wisner handles the arrangements, and also plays some mean piano. Titles include Dave Pike's "Dream Garden", which was arranged by Pike himself - plus Herbie Mann's "West African High Life", and Herbie Hancock's "Hey Ho" - as well as the cuts "No Matter What Shape", "More Rice Than Peas, Please", "Soul Montuno", and "The Beat Goes On"."

Herbie Mann - The Beat Goes On (1967) {2013 Japan 24-bit Remaster} [Jazz Best Collection 1000 Series]


Personnel:
Herbie Mann - flute
with various ensembles including:
Clark Terry - trumpet
King Curtis - tenor saxophone
Roy Ayers, Dave Pike - vibraphone
Don Friedman, Jimmy Wisner, Joe Zawinul - piano
Attila Zoller - guitar
Jack Six, Reggie Workman - bass
Bruno Carr, Bobby Thomas - drums
Willie Bobo - timbales
Carlos "Patato" Valdes - congas, percussion
Tamiko Jones - vocals
Gene Orloff, Jimmy Wisner - arranger, conductor

tracklist:
01 - No Matter What Shape
02 - More Rice That Peas, Please
03 - Hey Ho
04 - The Honeydripper
05 - The Beat Goes On
06 - Swingin' Shepherd Blues
07 - West African High Life
08 - Dream Garden
09 - Soul Montuno
10 - Is Paris Burning

Exact Audio Copy V0.99 prebeta 5 from 4. May 2009

EAC extraction logfile from 25. January 2015, 0:31

Herbie Mann / The Beat Goes On

Used drive : PLEXTOR DVDR PX-L890SA Adapter: 6 ID: 0

Read mode : Secure
Utilize accurate stream : Yes
Defeat audio cache : Yes
Make use of C2 pointers : No

Read offset correction

: 6
Overread into Lead-In and Lead-Out : No
Fill up missing offset samples with silence : Yes
Delete leading and trailing silent blocks : No
Null samples used in CRC calculations : Yes
Used interface
: Native Win32 interface for Win NT & 2000
Gap handling
: Appended to previous track

Used output format : User Defined Encoder
Selected bitrate : 1024 kBit/s
Quality : High
Add ID3 tag : No
Command line compressor : C:\Program Files (x86)\FLAC Frontend\tools\flac.exe
Additional command line options : -8 -V -T "ARTIST=%a" -T "TITLE=%t" -T "ALBUM=%g" -T "DATE=%y" -T "TRACKNUMBER=%n" -T "GENRE=%m" -T "COMMENT=EAC FLAC -8" %s

TOC of the extracted CD Track | Start | Length | Start sector | End sector
--1 | 0:00.00 | 3:26.45 | 0 | 15494 2 | 3:26.45 | 3:33.61 | 15495 | 31530 3 | 7:00.31 | 2:48.06 | 31531 | 44136 4 | 9:48.37 | 2:48.05 | 44137 | 56741 5 | 12:36.42 | 2:55.09 | 56742 | 69875 6 | 15:31.51 | 3:07.31 | 69876 | 83931 7 | 18:39.07 | 2:42.69 | 83932 | 96150 8 | 21:22.01 | 4:41.39 | 96151 | 117264 9 | 26:03.40 | 3:01.47 | 117265 | 130886
10 | 29:05.12 | 2:35.44 | 130887 | 142555

Track 1 Filename D:\Herbie Mann - The Beat Goes On (1967) [FLAC] {WPCR-27462}\01 - No Matter What Shape.wav Pre-gap length 0:00:02.00 Peak level 100.0 %
Track quality 100.0 %
Test CRC 503BB06C
Copy CRC 503BB06C
Track not present in AccurateRip database
Copy OK

Track 2 Filename D:\Herbie Mann - The Beat Goes On (1967) [FLAC] {WPCR-27462}\02 - More Rice That Peas, Please.wav Pre-gap length 0:00:00.66 Peak level 100.0 %
Track quality 100.0 %
Test CRC F85306B2
Copy CRC F85306B2
Track not present in AccurateRip database
Copy OK

Track 3 Filename D:\Herbie Mann - The Beat Goes On (1967) [FLAC] {WPCR-27462}\03 - Hey Ho.wav Pre-gap length 0:00:01.18 Peak level 100.0 %
Track quality 100.0 %
Test CRC 2A459993
Copy CRC 2A459993
Track not present in AccurateRip database
Copy OK

Track 4 Filename D:\Herbie Mann - The Beat Goes On (1967) [FLAC] {WPCR-27462}\04 - The Honeydripper.wav Pre-gap length 0:00:00.69 Peak level 100.0 %
Track quality 100.0 %
Test CRC B872AB05
Copy CRC B872AB05
Track not present in AccurateRip database
Copy OK

Track 5 Filename D:\Herbie Mann - The Beat Goes On (1967) [FLAC] {WPCR-27462}\05 - The Beat Goes On.wav Pre-gap length 0:00:01.26 Peak level 100.0 %
Track quality 100.0 %
Test CRC CC0AB364
Copy CRC CC0AB364
Track not present in AccurateRip database
Copy OK

Track 6 Filename D:\Herbie Mann - The Beat Goes On (1967) [FLAC] {WPCR-27462}\06 - Swingin' Shepherd Blues.wav Pre-gap length 0:00:01.21 Peak level 100.0 %
Track quality 100.0 %
Test CRC 0B931033
Copy CRC 0B931033
Track not present in AccurateRip database
Copy OK

Track 7 Filename D:\Herbie Mann - The Beat Goes On (1967) [FLAC] {WPCR-27462}\07 - West African High Life.wav Pre-gap length 0:00:01.13 Peak level 100.0 %
Track quality 100.0 %
Test CRC C2307887
Copy CRC C2307887
Track not present in AccurateRip database
Copy OK

Track 8 Filename D:\Herbie Mann - The Beat Goes On (1967) [FLAC] {WPCR-27462}\08 - Dream Garden.wav Pre-gap length 0:00:01.06 Peak level 100.0 %
Track quality 100.0 %
Test CRC 733F396F
Copy CRC 733F396F
Track not present in AccurateRip database
Copy OK

Track 9 Filename D:\Herbie Mann - The Beat Goes On (1967) [FLAC] {WPCR-27462}\09 - Soul Montuno.wav Pre-gap length 0:00:01.28 Peak level 100.0 %
Track quality 99.9 %
Test CRC BB81CC8A
Copy CRC BB81CC8A
Track not present in AccurateRip database
Copy OK

Track 10 Filename D:\Herbie Mann - The Beat Goes On (1967) [FLAC] {WPCR-27462}\10 - Is Paris Burning .wav Pre-gap length 0:00:00.69 Peak level 100.0 %
Track quality 100.0 %
Test CRC EA78774E
Copy CRC EA78774E
Track not present in AccurateRip database
Copy OK

None of the tracks are present in the AccurateRip database

No errors occurred

End of status report

Herbie Mann - The Beat Goes On (1967) {2013 Japan 24-bit Remaster} [Jazz Best Collection 1000 Series]

Herbie Mann - The Beat Goes On (1967) {2013 Japan 24-bit Remaster} [Jazz Best Collection 1000 Series]

DOWNLOAD LINKS:
Buy Premium To Support Me & Get Resumable Support & Max Speed


Links are Interchangeable - No Password - Single Extraction

Direct Download

Tags: Herbie, Remaster, Collection, Series

Herbie Mann - The Beat Goes On (1967) {2013 Japan 24-bit Remaster} [Jazz Best Collection 1000 Series] Download via Hotfile Rapidshare Fileserve Megaupload & FileSonic, Herbie Mann - The Beat Goes On (1967) {2013 Japan 24-bit Remaster} [Jazz Best Collection 1000 Series] free torrent downloads included crack, serial, keygen.


Attention!Information

Members of Guest cannot leave comments.