Kenny Wheeler - One Of Many (2011) {CamJazz}

Download Now

Kenny Wheeler - One Of Many (2011) {CamJazz}

Kenny Wheeler - One Of Many (2011) {CamJazz}
EAC 1.0b3 | FLAC tracks level 8 | Cue+Log+M3U | Full Scans 600dpi | 282MB + 5% Recovery
Genre: Jazz, Post-Bop

"Kenny Wheeler sticks to flugelhorn exclusively for this unusual yet intimate trio date with pianist John Taylor and electric bassist Steve Swallow (whose nimble playing makes it seem like he is playing an acoustic guitar at times). Together the three veterans explore the leader's stunning originals, most of which are ballads, beginning with the buoyant Brazilian-flavored "Phrase 3." "Anticipation" is a tense affair, with the rhythm section introducing a hypnotic, intricate vamp before Wheeler makes a powerful entrance stating its melancholic theme."

Track List
01. Phrase 3 6:12
02. Anticipation 5:25
03. Aneba 5:59
04. Any How 3:16
05. Canter N.5 4:04
06. Ever After (duo Version) 3:06
07. Now And Now Again 5:13
08. Old Ballad 6:58
09. Fortune's Child 6:26
10. Ever After 5:41

musicians
Kenny Wheeler - flugelhorn
John Taylor - piano
Steve Swallow - electric bass

Produced by Ermanno Basso

Exact Audio Copy V1.0 beta 3 from 29. August 2011

EAC extraction logfile from 12. August 2015, 22:15

Kenny Wheeler / One of Many

Used drive : hp DVD-RAM GHB0N Adapter: 0 ID: 0

Read mode : Secure
Utilize accurate stream : Yes
Defeat audio cache : Yes
Make use of C2 pointers : No

Read offset correction

: 6
Overread into Lead-In and Lead-Out : No
Fill up missing offset samples with silence : Yes
Delete leading and trailing silent blocks : No
Null samples used in CRC calculations : Yes
Used interface
: Native Win32 interface for Win NT & 2000
Gap handling
: Appended to previous track

Used output format : User Defined Encoder
Selected bitrate : 1024 kBit/s
Quality : High
Add ID3 tag : No
Command line compressor : C:\Program Files (x86)\Exact Audio Copy\FLAC\FLAC.EXE
Additional command line options : -8 -V -T "ARTIST=%artist%" -T "TITLE=%title%" -T "ALBUM=%albumtitle%" -T "DATE=%year%" -T "TRACKNUMBER=%tracknr%" -T "TOTALTRACKS=%numtracks%" -T "GENRE=%genre%" -T "ALBUM ARTIST=%albumartist%" -T "ALBUMARTIST=%albumartist%" -T "COMMENT=EAC V1.0 beta 3, Secure Mode, Test & Copy, AccurateRip, FLAC -8" %source%

TOC of the extracted CD Track | Start | Length | Start sector | End sector
--1 | 0:00.00 | 6:12.46 | 0 | 27945 2 | 6:12.46 | 5:25.67 | 27946 | 52387 3 | 11:38.38 | 5:59.56 | 52388 | 79368 4 | 17:38.19 | 3:16.23 | 79369 | 94091 5 | 20:54.42 | 4:04.74 | 94092 | 112465 6 | 24:59.41 | 3:06.45 | 112466 | 126460 7 | 28:06.11 | 5:13.04 | 126461 | 149939 8 | 33:19.15 | 6:58.43 | 149940 | 181332 9 | 40:17.58 | 6:26.40 | 181333 | 210322
10 | 46:44.23 | 5:41.50 | 210323 | 235947

Track 1 Filename C:\Users\Maison\Downloads\Rips\01 - Kenny Wheeler - Phrase 3.wav Pre-gap length 0:00:02.00 Peak level 87.1 %
Extraction speed 1.9 X
Track quality 100.0 %
Test CRC CA3DB96A
Copy CRC CA3DB96A
Accurately ripped (confidence 6) [D126745C] (AR v2)
Copy OK

Track 2 Filename C:\Users\Maison\Downloads\Rips\02 - Kenny Wheeler - Anticipation.wav Pre-gap length 0:00:02.00 Peak level 88.6 %
Extraction speed 2.1 X
Track quality 100.0 %
Test CRC 1F458599
Copy CRC 1F458599
Accurately ripped (confidence 6) [CC8D718B] (AR v2)
Copy OK

Track 3 Filename C:\Users\Maison\Downloads\Rips\03 - Kenny Wheeler - Aneba.wav Pre-gap length 0:00:02.00 Peak level 80.1 %
Extraction speed 2.4 X
Track quality 100.0 %
Test CRC 4A125EF3
Copy CRC 4A125EF3
Accurately ripped (confidence 6) [6224F02B] (AR v2)
Copy OK

Track 4 Filename C:\Users\Maison\Downloads\Rips\04 - Kenny Wheeler - Any How.wav Pre-gap length 0:00:02.00 Peak level 82.5 %
Extraction speed 2.4 X
Track quality 100.0 %
Test CRC CE58E8B4
Copy CRC CE58E8B4
Accurately ripped (confidence 6) [544F6417] (AR v2)
Copy OK

Track 5 Filename C:\Users\Maison\Downloads\Rips\05 - Kenny Wheeler - Canter #5.wav Pre-gap length 0:00:02.00 Peak level 75.4 %
Extraction speed 2.0 X
Track quality 99.9 %
Test CRC E1188227
Copy CRC E1188227
Accurately ripped (confidence 6) [642BC2E5] (AR v2)
Copy OK

Track 6 Filename C:\Users\Maison\Downloads\Rips\06 - Kenny Wheeler - Ever After (Duo version).wav Pre-gap length 0:00:02.00 Peak level 85.0 %
Extraction speed 2.6 X
Track quality 100.0 %
Test CRC 80E7DC4E
Copy CRC 80E7DC4E
Accurately ripped (confidence 6) [07324F1F] (AR v2)
Copy OK

Track 7 Filename C:\Users\Maison\Downloads\Rips\07 - Kenny Wheeler - Now and Now Again.wav Pre-gap length 0:00:02.00 Peak level 87.3 %
Extraction speed 2.3 X
Track quality 99.9 %
Test CRC D08F947C
Copy CRC D08F947C
Accurately ripped (confidence 6) [3602A799] (AR v2)
Copy OK

Track 8 Filename C:\Users\Maison\Downloads\Rips\08 - Kenny Wheeler - Old Ballad.wav Pre-gap length 0:00:02.00 Peak level 91.7 %
Extraction speed 3.2 X
Track quality 100.0 %
Test CRC 9C2CB51D
Copy CRC 9C2CB51D
Accurately ripped (confidence 6) [FB4C5142] (AR v2)
Copy OK

Track 9 Filename C:\Users\Maison\Downloads\Rips\09 - Kenny Wheeler - Fortune's Child.wav Pre-gap length 0:00:02.00 Peak level 91.8 %
Extraction speed 3.4 X
Track quality 100.0 %
Test CRC 3A79DF34
Copy CRC 3A79DF34
Accurately ripped (confidence 6) [4B76F1DC] (AR v2)
Copy OK

Track 10 Filename C:\Users\Maison\Downloads\Rips\10 - Kenny Wheeler - Even After.wav Pre-gap length 0:00:02.00 Peak level 83.3 %
Extraction speed 3.5 X
Track quality 100.0 %
Test CRC A114E478
Copy CRC A114E478
Accurately ripped (confidence 6) [5890FAA5] (AR v2)
Copy OK

All tracks accurately ripped

No errors occurred

End of status report

==== Log checksum BC0AE8BEEF198942D4ED60A3D7E11A510F3B4E5EF12508F9A38B09B2470789F9 ====

Analyzed: Kenny Wheeler / One of Many

DR Peak RMS Duration Track

DR12 -1.20 dB -16.81 dB 6:13 01-Phrase 3
DR12 -1.05 dB -15.54 dB 5:26 02-Anticipation
DR13 -1.92 dB -17.55 dB 6:00 03-Aneba
DR12 -1.67 dB -15.80 dB 3:16 04-Any How
DR12 -2.45 dB -17.98 dB 4:05 05-Canter #5
DR12 -1.41 dB -16.54 dB 3:07 06-Ever After (Duo version)
DR13 -1.17 dB -16.93 dB 5:13 07-Now and Now Again
DR12 -0.74 dB -16.68 dB 6:59 08-Old Ballad
DR12 -0.74 dB -15.64 dB 6:27 09-Fortune's Child
DR12 -1.58 dB -16.02 dB 5:42 10-Even After

Number of tracks: 10
Official DR value: DR12

Samplerate: 44100 Hz
Channels: 2
Bits per sample: 16
Bitrate: 547 kbps
Codec: FLAC

Kenny Wheeler - One Of Many (2011) {CamJazz}

Kenny Wheeler - One Of Many (2011) {CamJazz}

Kenny Wheeler - One Of Many (2011) {CamJazz}

Rip by tdelyon


DOWNLOAD LINKS
(Premium Recommended)


Links are Interchangeable - No Password - Single Extraction

Direct Download

Tags: Wheeler, CamJazz

Kenny Wheeler - One Of Many (2011) {CamJazz} Download via Hotfile Rapidshare Fileserve Megaupload & FileSonic, Kenny Wheeler - One Of Many (2011) {CamJazz} free torrent downloads included crack, serial, keygen.


Attention!Information

Members of Guest cannot leave comments.