The Quest - Do You Believe? (1993)

Download Now

The Quest - Do You Believe? (1993)

The Quest - Do You Believe? (1993)
EAC Rip | FLAC (image & cue & log) | 253 MB | MP3 CBR 320 kbps | 103 MB | Scans | 37:51
Genre: Neo-Progressive Rock | Country: UK | Label: Now and Then | NTHEN 5.

"Do You Believe is the debut album of this Cheshire based band. Until then their only previous appearence on CD was on the Pagan Portfolio 1 ('91) compilaton with vocalist Andy Shaw (2 Die 4/Say)."



Tracklist:

1. At Point Zero (4:19)
2. Chain Reaction (4:37)
3. In The Firing Line (5:03)
4. I'm Leaving (4:36)
5. Beat Of The City (3:56)
6. Take Me Over (4:09)
7. Walk Away (4:42)
8. River Of Secrets (6:24)

Exact Audio Copy V1.0 beta 3 from 29. August 2011

EAC extraction logfile from 8. October 2012, 21:12

The Quest / Do You Believe?

Used drive : TEAC CD-W516EB Adapter: 0 ID: 0

Read mode : Secure
Utilize accurate stream : Yes
Defeat audio cache : Yes
Make use of C2 pointers : No

Read offset correction

: 685
Overread into Lead-In and Lead-Out : No
Fill up missing offset samples with silence : Yes
Delete leading and trailing silent blocks : No
Null samples used in CRC calculations : Yes
Used interface
: Native Win32 interface for Win NT & 2000

Used output format : User Defined Encoder
Selected bitrate : 1024 kBit/s
Quality : High
Add ID3 tag : Yes
Command line compressor : C:\Program Files (x86)\FLAC\flac.exe
Additional command line options : -6 -V -T "ARTIST=%artist%" -T "TITLE=%title%" -T "ALBUM=%albumtitle%" -T "DATE=%year%" -T "TRACKNUMBER=%tracknr%" -T "GENRE=%genre%" -T "COMMENT=%comment%" %source% -o %dest%

TOC of the extracted CD Track | Start | Length | Start sector | End sector
--1 | 0:00.00 | 4:19.08 | 0 | 19432 2 | 4:19.08 | 4:37.25 | 19433 | 40232 3 | 8:56.33 | 5:03.65 | 40233 | 63022 4 | 14:00.23 | 4:36.65 | 63023 | 83787 5 | 18:37.13 | 3:56.70 | 83788 | 101557 6 | 22:34.08 | 4:09.67 | 101558 | 120299 7 | 26:44.00 | 4:42.40 | 120300 | 141489 8 | 31:26.40 | 6:24.40 | 141490 | 170329

Range status and errors

Selected range Filename Y:\EAC\wurensh\The Quest\The Quest - Do You Believe__.wav Peak level 100.0 %
Extraction speed 7.0 X
Range quality 100.0 %
Test CRC 575AEA82
Copy CRC 575AEA82
Copy OK

No errors occurred


AccurateRip summary

Track 1 accurately ripped (confidence 3) D5192BA (AR v1)
Track 2 accurately ripped (confidence 3) [25F96C61] (AR v1)
Track 3 accurately ripped (confidence 3) [6211932F] (AR v1)
Track 4 accurately ripped (confidence 3) [F80BD549] (AR v1)
Track 5 accurately ripped (confidence 3) [D584314F] (AR v1)
Track 6 accurately ripped (confidence 3) [C3BE61DD] (AR v1)
Track 7 accurately ripped (confidence 3) 9469CE7 (AR v1)
Track 8 accurately ripped (confidence 3) [CBB1C331] (AR v1)

All tracks accurately ripped

End of status report

- CUETools DB Plugin V2.1.3

[CTDB TOCID: QSJHnaaC2F.FFMPHVmvjKgrnmcY-] found, Submit result: QSJHnaaC2F.FFMPHVmvjKgrnmcY- has been confirmed
[65f8d28e] (1/1) Accurately ripped

Personnel

- David Shaun Owens / All Voices
- Graham Woodcock / Keyboards
- Andy Coffey / Drums
- Chris Dorman / All Guitars
- Peter Dunn / Bass

All thanks to wurensh

The Quest - Do You Believe? (1993)


DOWNLOAD LINKS:
Buy Premium To Support Me & Get Resumable Support & Max Speed


Links are Interchangeable - No Password - Single Extraction

Direct Download

Tags: Believe

The Quest - Do You Believe? (1993) Download via Hotfile Rapidshare Fileserve Megaupload & FileSonic, The Quest - Do You Believe? (1993) free torrent downloads included crack, serial, keygen.


Attention!Information

Members of Guest cannot leave comments.