V.A. - Elucidations (2002)

Download Now

V.A. - Elucidations (2002)

V.A. - Elucidations (2002)
EAC Rip | FLAC (image+.cue+log) - 413 MB | MP3 CBR 320 kbps (LAME 3.93) - 154 MB | Covers - 60 MB
Genre: Dub, Downtempo, Ambient | RAR 3% Rec. | Label: Liquid Sound Design (BFLCD55)

"'Elucidations' is another superb addition to the ever-burgeoning Liquid Sound Design label. Following on from the huge success of 'Mana Medicine', comes chill out maestro DJ Humphrey's latest selection of blissful tunes. Carefully crafted by uber beats / chillout DJ Humphrey (Cafe del Mar, Las Salinas, Big Chill) 'Elucidations' continues the journey of bringing together a collection of exclusive tracks that fuse dub, breaks, electronica, and balearic influences, to create a melting pot of ultra chilled sounds."

Tracklist:
01. Ott - Ott Meets Billy the Kid
02. Kiwa - Arachnoid Dub
03. Drum Druids - Last Summer (dub)
04. Humito - Monkey Puzzle
05. Violet Vision - Sign of Bliss
06. Lusine ICL - Scheming
07. The Kumba Mela - Himalayan Dub
08. Abacus - Return to Rama
09. Humito - Wider Horizons (Drum Druids remix)

Total time: 01:05:37

Exact Audio Copy V0.99 prebeta 5 from 4. May 2009

EAC extraction logfile from 13. October 2010, 23:54

Various Artists / Elucidations

Used drive : Optiarc DVD RW AD-7200S Adapter: 1 ID: 0

Read mode : Secure
Utilize accurate stream : Yes
Defeat audio cache : Yes
Make use of C2 pointers : No

Read offset correction

: 48
Overread into Lead-In and Lead-Out : No
Fill up missing offset samples with silence : Yes
Delete leading and trailing silent blocks : No
Null samples used in CRC calculations : Yes
Used interface
: Native Win32 interface for Win NT & 2000

Used output format : User Defined Encoder
Selected bitrate : 1024 kBit/s
Quality : High
Add ID3 tag : No
Command line compressor : C:\Program Files\Exact Audio Copy\FLAC\FLAC.EXE
Additional command line options : -8 -V %s

TOC of the extracted CD Track | Start | Length | Start sector | End sector
--1 | 0:00.00 | 6:53.05 | 0 | 30979 2 | 6:53.05 | 8:08.32 | 30980 | 67611 3 | 15:01.37 | 6:49.33 | 67612 | 98319 4 | 21:50.70 | 7:52.00 | 98320 | 133719 5 | 29:42.70 | 6:53.10 | 133720 | 164704 6 | 36:36.05 | 6:00.10 | 164705 | 191714 7 | 42:36.15 | 7:51.15 | 191715 | 227054 8 | 50:27.30 | 8:37.70 | 227055 | 265899 9 | 59:05.25 | 6:31.57 | 265900 | 295281

Range status and errors

Selected range Filename D:\Various Artists - Elucidations.wav Peak level 96.9 %
Range quality 100.0 %
Test CRC 6A34E9C3
Copy CRC 6A34E9C3
Copy OK

No errors occurred


AccurateRip summary

Track 1 accurately ripped (confidence 4) [7D3013D0]
Track 2 accurately ripped (confidence 4) [F0BE6A0B]
Track 3 accurately ripped (confidence 4) [CBFA9759]
Track 4 accurately ripped (confidence 4) [48459ADC]
Track 5 accurately ripped (confidence 4) [1385E060]
Track 6 accurately ripped (confidence 4) [0E0508B9]
Track 7 accurately ripped (confidence 4) [9CC67B1D]
Track 8 accurately ripped (confidence 4) [A092028D]
Track 9 accurately ripped (confidence 4) [6BF73ABB]

All tracks accurately ripped

End of status report

[CUETools log; Date: 11.10.2015 14:03:08; Version: 2.1.4]
[CTDB TOCID: whsJvrmSFZYao3t0SEZWqtv9ArM-] found.
Track | CTDB Status
1 | (5/5) Accurately ripped
2 | (5/5) Accurately ripped
3 | (5/5) Accurately ripped
4 | (5/5) Accurately ripped
5 | (5/5) Accurately ripped
6 | (5/5) Accurately ripped
7 | (5/5) Accurately ripped
8 | (5/5) Accurately ripped
9 | (5/5) Accurately ripped
[AccurateRip ID: 001682d9-00a516c8-7c0f6109] found.
Track [ CRC | V2 ] Status
01 [7d3013d0|2f681f31] (6+0/6) Accurately ripped
02 [f0be6a0b|a2c66d95] (6+0/6) Accurately ripped
03 [cbfa9759|95fb8b6a] (6+0/6) Accurately ripped
04 [48459adc|23d73604] (6+0/6) Accurately ripped
05 [1385e060|198f0392] (6+0/6) Accurately ripped
06 [0e0508b9|f8d7d9a2] (6+0/6) Accurately ripped
07 [9cc67b1d|b935798c] (6+0/6) Accurately ripped
08 [a092028d|596917fe] (6+0/6) Accurately ripped
09 [6bf73abb|b658c401] (6+0/6) Accurately ripped

Track Peak [ CRC32 ] [W/O NULL] [ LOG ]
-- 96,9 [6A34E9C3] [1E8A4632] CRC32
01 81,8 [9A40F951] B39F861
02 85,1 [C8021E13] F9AB6C0
03 96,9 [C522346B] [DCBA1784]
04 86,4 [E35B16BC] [CFC9DE1D]
05 95,8 [F0986672] 63C6D18
06 94,8 [45826FC5] [8389D04D]
07 85,1 [2BDAB433] [A3B05810]
08 85,1 [63C53F8D] [79DC3C84]
09 81,8 [ECCAC89F] 5977194

Thanks to vostrik
DOWNLOAD LINKS
(Premium Recommended)


Links are Interchangeable - No Password - Single Extraction

Direct Download

Tags: Elucidations

V.A. - Elucidations (2002) Download via Hotfile Rapidshare Fileserve Megaupload & FileSonic, V.A. - Elucidations (2002) free torrent downloads included crack, serial, keygen.


Attention!Information

Members of Guest cannot leave comments.