Skinny Puppy - Cleanse Fold And Manipulate (1987)

Download Now

Skinny Puppy - Cleanse Fold And Manipulate (1987)

Skinny Puppy - Cleanse Fold And Manipulate (1987)
Electronic | 1cd | EAC Rip | Flac + Cue + Log | covers
Capitol, CDP 7 46922 2 | rel: 1987 | 290Mb

In the scheme of all things Skinny Puppy, Cleanse, Fold and Manipulate can be rather hard to recommend. Though it contains one of the band's finest songs, "Deep Down Trauma Hounds," Cleanse ultimately feels like a turning point, where experimentation is just beginning to gel with innovation and the band's trademark sound is forming rapidly before one's ears. But much of the album comes across like a series of interludes or ambient instrumental fragments.
Still, fans of industrial music will appreciate the album's formidable beats and coarse sound samples that seem to be generated from warping the sounds of heavy machinery. Perhaps more than other any place in Skinny Puppy's discography, Ogre's vocals work like spoken-word stream-of-conscious dementia, with more emphasis on evil tones than on any relation to their music. After the Perry Mason sample-thon "Deep Down Trauma Hounds," special notice should be given to the ominous, haunted "Addiction"; the unsettling, creepy collage of "Shadow Cast," which features blood-curdling samples from Dennis Hopper in The Texas Chainsaw Massacre 2; and the overall tapestry of evil that is "Draining Faces," which suggests to a listener that they've come upon a goblin's ritual sacrifice in some foreign realm. "Anger" is the best indication that Skinny Puppy is semi-stuck in a rut between styles, as it straddles the industrial genre and the cut-and-paste sonic curveballs of later Skinny Puppy releases; its "spinning through the radio dial" effect would be put to far better use on Too Dark Park and Last Rights. Still more interesting than the majority of output from their peers and followers, Cleanse, Fold and Manipulate is best left for die-hard Skinny Puppy fans, especially those who favor the band's early, sinister, pristine dark ambience to the all-out torment that would develop gradually on the band's next five albums. ~Allmusic

Track listing
01. First Aid (4:30)
02. Addiction (6:01)
03. Shadow Cast (4:18)
04. Draining Faces (5:13)
05. The Mourn (2:41)
06. Second Tooth (4:06)
07. Tear Or Beat (4:42)
08. Deep Down Trauma Hounds (4:42)
09. Anger (4:54)
10. Epilogue (1:14)
~ (42:22)

Personnel
- Nivek Ogre - voices, lyrics, objects, audio sculpture
- cEvin Key - synthesizers, guitar, drums, bass, voices, lyrics, sampling, sequencing, sounds, objects, radio, tapes, sequencers
- Dwayne Goettel - synthesizers, guitar, drums, background vocals sampling, tape, sequencing, radio, sequencers
- Peter Rave - guitar

Exact Audio Copy V1.0 beta 1 from 15. November 2010

EAC extraction logfile from 22. March 2011, 21:47

Skinny Puppy / Cleanse Fold And Manipulate

Used drive : LITE-ON DVDRW LH-20A1L Adapter: 4 ID: 0

Read mode : Secure
Utilize accurate stream : Yes
Defeat audio cache : Yes
Make use of C2 pointers : No

Read offset correction

: 6
Overread into Lead-In and Lead-Out : No
Fill up missing offset samples with silence : Yes
Delete leading and trailing silent blocks : No
Null samples used in CRC calculations : Yes
Used interface
: Installed external ASPI interface

Used output format : Internal WAV Routines
Sample format : 44.100 Hz; 16 Bit; Stereo

TOC of the extracted CD Track | Start | Length | Start sector | End sector
--1 | 0:00.32 | 4:30.03 | 32 | 20284 2 | 4:30.35 | 6:01.22 | 20285 | 47381 3 | 10:31.57 | 4:18.33 | 47382 | 66764 4 | 14:50.15 | 5:12.57 | 66765 | 90221 5 | 20:02.72 | 2:41.08 | 90222 | 102304 6 | 22:44.05 | 4:06.02 | 102305 | 120756 7 | 26:50.07 | 4:42.08 | 120757 | 141914 8 | 31:32.15 | 4:41.50 | 141915 | 163039 9 | 36:13.65 | 4:54.02 | 163040 | 185091
10 | 41:07.67 | 1:14.20 | 185092 | 190661

Range status and errors

Selected range Filename Z:\data\mp3\Seeding Archive\Skinny Puppy\1987-Cleanse Fold And Manipulate\cleanse.wav Peak level 89.5 %
Extraction speed 0.2 X
Range quality 100.0 %
Test CRC 18961D08
Copy CRC 18961D08
Copy OK

No errors occurred


AccurateRip summary

Track 1 accurately ripped (confidence 50) [9C775234]
Track 2 accurately ripped (confidence 53) [D00A1C32]
Track 3 accurately ripped (confidence 52) [E75A09A7]
Track 4 accurately ripped (confidence 50) [EED31530]
Track 5 accurately ripped (confidence 53) [35802AC6]
Track 6 accurately ripped (confidence 52) [ADDB22DE]
Track 7 accurately ripped (confidence 50) [061916FD]
Track 8 accurately ripped (confidence 50) 5D0C5F6
Track 9 accurately ripped (confidence 49) [7BFABD69]
Track 10 accurately ripped (confidence 51) [8744E015]

All tracks accurately ripped

End of status report

[CUETools log; Date: 2015.10.12. 11:04:45; Version: 2.1.5]
Pregap length 00:00:32.
[CTDB TOCID: MUS2P6OnZn.oJEW6YGHIaNt3vrY-] found.
Track | CTDB Status
1 | (13/13) Accurately ripped
2 | (13/13) Accurately ripped
3 | (13/13) Accurately ripped
4 | (13/13) Accurately ripped
5 | (13/13) Accurately ripped
6 | (13/13) Accurately ripped
7 | (13/13) Accurately ripped
8 | (13/13) Accurately ripped
9 | (13/13) Accurately ripped
10 | (13/13) Accurately ripped
[AccurateRip ID: 00113809-0087f851-8709ee0a] found.
Track [ CRC | V2 ] Status
01 [9c775234|1490183e] (057+036/101) Accurately ripped
02 [d00a1c32|dc49e1c8] (060+036/105) Accurately ripped
03 [e75a09a7|a6073922] (058+036/102) Accurately ripped
04 [eed31530|6e4605f8] (055+036/098) Accurately ripped
05 [35802ac6|68b2cb94] (060+036/103) Accurately ripped
06 [addb22de|55adde7c] (058+036/101) Accurately ripped
07 [061916fd|fc700b7c] (056+036/099) Accurately ripped
08 5d0c5f6|2ec61f3d (057+035/100) Accurately ripped
09 [7bfabd69|031eaf4c] (054+036/098) Accurately ripped
10 [8744e015|bd760fa7] (056+036/099) Accurately ripped
Offsetted by -834:
01 [54bdc0e9] (004/101) Accurately ripped
02 [a0cc463f] (005/105) Accurately ripped
03 [10db532e] (004/102) Accurately ripped
04 [e3a322ff] (003/098) Accurately ripped
05 [13892de2] (003/103) Accurately ripped
06 [a4389a6c] (003/101) Accurately ripped
07 [0d659fd3] (003/099) Accurately ripped
08 [4d05531d] (004/100) Accurately ripped
09 [626320dc] (004/098) Accurately ripped
10 6c68dfd (003/099) Accurately ripped

Track Peak [ CRC32 ] [W/O NULL] [ LOG ]
-- 89,5 [18961D08] [2571C4AF] CRC32
01 88,0 [D5A1F8A1] [E93EAA66]
02 84,2 [E0EBC211] [9BD4DC25]
03 89,5 [A49315BB] [F0A562E3]
04 79,9 [DB6CBFF2] [973C2776]
05 71,8 [72EC4ECF] [622333E4]
06 86,5 [9A2BAD5F] [E7F71FAF]
07 82,5 20EEE23 [08330D6D]
08 87,6 [FF478D74] [9237CAEC]
09 78,0 [D1D83DE8] [AA7487A3]
10 80,5 222B01C [7105F2E4]

Thx to hexonut
DOWNLOAD LINKS:
Buy Premium To Support Me & Get Resumable Support & Max Speed


Links are Interchangeable - No Password - Single Extraction

Direct Download

Tags: Skinny, Cleanse, Manipulate

Skinny Puppy - Cleanse Fold And Manipulate (1987) Download via Hotfile Rapidshare Fileserve Megaupload & FileSonic, Skinny Puppy - Cleanse Fold And Manipulate (1987) free torrent downloads included crack, serial, keygen.


Attention!Information

Members of Guest cannot leave comments.