Big Black - Death Wish (1993)

Download Now

Big Black - Death Wish (1993)

Big Black - Death Wish (1993)
EAC | Flac(Image) + Cue + Log & MP3 CBR 320Kbps
Big Music, BIG 049 | ~ 386 or 151 Mb | Scans Included
Alternative Rock / Hardcore / Noise / Indie Rock

~ Unofficial Release, Recorded Live in Europe 1987 ~



Tracklist:

01. The Model (03:28)
02. Fists Of Love (04:28)
03. El Dopa (01:57)
04. Passing Complexion (03:13)
05. Cables (05:14)
06. Bad Penny (03:05)
07. Pavement Saw (04:33)
08. Kerosene (07:07)
09. Steelworker (07:19)
10. Pigeon Kill (02:45)
11. Fish Fry (02:08)
12. Jordan, Minnesota (07:39)
13. Big Money (04:31)
14. I'm A Mess (02:19)
15. R.I.P. (01:57)

Exact Audio Copy V1.0 beta 1 from 15. November 2010

EAC extraction logfile from 22. August 2011, 22:04

Big Black / Death Wish

Used drive : HL-DT-STDVDRAM GSA-H10N Adapter: 1 ID: 0

Read mode : Secure
Utilize accurate stream : Yes
Defeat audio cache : Yes
Make use of C2 pointers : No

Read offset correction

: 667
Overread into Lead-In and Lead-Out : No
Fill up missing offset samples with silence : Yes
Delete leading and trailing silent blocks : No
Null samples used in CRC calculations : Yes
Used interface
: Native Win32 interface for Win NT & 2000
Gap handling
: Appended to previous track

Used output format : User Defined Encoder
Selected bitrate : 128 kBit/s
Quality : High
Add ID3 tag : No
Command line compressor : C:\Program\Exact Audio Copy\Flac\flac.exe
Additional command line options : -V -8 -T "artist=%a" -T "title=%t" -T "album=%g" -T "date=%y" -T "tracknumber=%n" -T "genre=%m" %s

TOC of the extracted CD Track | Start | Length | Start sector | End sector
--1 | 0:00.33 | 3:28.00 | 33 | 15632 2 | 3:28.33 | 4:28.00 | 15633 | 35732 3 | 7:56.33 | 1:57.00 | 35733 | 44507 4 | 9:53.33 | 3:13.00 | 44508 | 58982 5 | 13:06.33 | 5:14.00 | 58983 | 82532 6 | 18:20.33 | 3:05.50 | 82533 | 96457 7 | 21:26.08 | 4:33.25 | 96458 | 116957 8 | 25:59.33 | 7:07.37 | 116958 | 149019 9 | 33:06.70 | 7:19.38 | 149020 | 181982
10 | 40:26.33 | 2:45.00 | 181983 | 194357
11 | 43:11.33 | 2:08.12 | 194358 | 203969
12 | 45:19.45 | 7:39.00 | 203970 | 238394
13 | 52:58.45 | 4:31.63 | 238395 | 258782
14 | 57:30.33 | 2:19.00 | 258783 | 269207
15 | 59:49.33 | 1:57.00 | 269208 | 277982

Track 1 Filename C:\EAC\Bootlegs\Big Black - Death Wish\01 - Big Black - The Model.wav Pre-gap length 0:00:02.44 Peak level 96.6 %
Extraction speed 4.5 X
Track quality 100.0 %
Test CRC 926C5BEA
Copy CRC 926C5BEA
Track not present in AccurateRip database
Copy OK

Track 2 Filename C:\EAC\Bootlegs\Big Black - Death Wish\02 - Big Black - Fists Of Love.wav Peak level 84.8 %
Extraction speed 5.1 X
Track quality 100.0 %
Test CRC 84F7D640
Copy CRC 84F7D640
Track not present in AccurateRip database
Copy OK

Track 3 Filename C:\EAC\Bootlegs\Big Black - Death Wish\03 - Big Black - L Dopa.wav Peak level 76.7 %
Extraction speed 4.7 X
Track quality 100.0 %
Test CRC 6C5E9697
Copy CRC 6C5E9697
Track not present in AccurateRip database
Copy OK

Track 4 Filename C:\EAC\Bootlegs\Big Black - Death Wish\04 - Big Black - Passing Complexion.wav Peak level 78.7 %
Extraction speed 5.6 X
Track quality 100.0 %
Test CRC F0C6753C
Copy CRC F0C6753C
Track not present in AccurateRip database
Copy OK

Track 5 Filename C:\EAC\Bootlegs\Big Black - Death Wish\05 - Big Black - Cables.wav Peak level 78.7 %
Extraction speed 6.3 X
Track quality 100.0 %
Test CRC 98CF089E
Copy CRC 98CF089E
Track not present in AccurateRip database
Copy OK

Track 6 Filename C:\EAC\Bootlegs\Big Black - Death Wish\06 - Big Black - Bad Penny.wav Peak level 80.8 %
Extraction speed 6.3 X
Track quality 100.0 %
Test CRC 5097AA28
Copy CRC 5097AA28
Track not present in AccurateRip database
Copy OK

Track 7 Filename C:\EAC\Bootlegs\Big Black - Death Wish\07 - Big Black - Pavement Saw.wav Peak level 77.1 %
Extraction speed 7.0 X
Track quality 100.0 %
Test CRC 4B4A6F46
Copy CRC 4B4A6F46
Track not present in AccurateRip database
Copy OK

Track 8 Filename C:\EAC\Bootlegs\Big Black - Death Wish\08 - Big Black - Kerosene.wav Peak level 83.1 %
Extraction speed 7.9 X
Track quality 100.0 %
Test CRC A84B4C1F
Copy CRC A84B4C1F
Track not present in AccurateRip database
Copy OK

Track 9 Filename C:\EAC\Bootlegs\Big Black - Death Wish\09 - Big Black - Steelworker.wav Peak level 97.2 %
Extraction speed 8.3 X
Track quality 100.0 %
Test CRC 91055BB6
Copy CRC 91055BB6
Track not present in AccurateRip database
Copy OK

Track 10 Filename C:\EAC\Bootlegs\Big Black - Death Wish\10 - Big Black - Pigeon Kill.wav Peak level 81.0 %
Extraction speed 7.3 X
Track quality 100.0 %
Test CRC 5AC3FC77
Copy CRC 5AC3FC77
Track not present in AccurateRip database
Copy OK

Track 11 Filename C:\EAC\Bootlegs\Big Black - Death Wish\11 - Big Black - Fish Fry.wav Peak level 83.7 %
Extraction speed 5.1 X
Track quality 99.9 %
Test CRC BEACD219
Copy CRC BEACD219
Track not present in AccurateRip database
Copy OK

Track 12 Filename C:\EAC\Bootlegs\Big Black - Death Wish\12 - Big Black - Jordan, Minnesota.wav Peak level 84.3 %
Extraction speed 9.3 X
Track quality 100.0 %
Test CRC 8E37A951
Copy CRC 8E37A951
Track not present in AccurateRip database
Copy OK

Track 13 Filename C:\EAC\Bootlegs\Big Black - Death Wish\13 - Big Black - Big Money.wav Peak level 81.5 %
Extraction speed 8.9 X
Track quality 100.0 %
Test CRC A840F779
Copy CRC A840F779
Track not present in AccurateRip database
Copy OK

Track 14 Filename C:\EAC\Bootlegs\Big Black - Death Wish\14 - Big Black - I'm A Mess.wav Peak level 82.2 %
Extraction speed 4.9 X
Track quality 100.0 %
Test CRC DA5E2561
Copy CRC DA5E2561
Track not present in AccurateRip database
Copy OK

Track 15 Filename C:\EAC\Bootlegs\Big Black - Death Wish\15 - Big Black - RIP.wav Peak level 78.7 %
Extraction speed 5.0 X
Track quality 100.0 %
Test CRC 48001A7C
Copy CRC 48001A7C
Track not present in AccurateRip database
Copy OK

None of the tracks are present in the AccurateRip database

No errors occurred

End of status report

==== Log checksum 3F11F533FA0F1636B45924B0482C955D3B0FBE65F84E6F815EB530C85E72BED7 ====

foobar2000 1.2.9 / Dynamic Range Meter 1.1.1
log date: 2015-10-13 12:23:14

Analyzed: Big Black / Death Wish

DR Peak RMS Duration Track

DR9 -0.29 dB -13.35 dB 3:28 01-The Model
DR10 -1.43 dB -13.72 dB 4:28 02-Fists Of Love
DR10 -2.29 dB -14.67 dB 1:57 03-L Dopa
DR9 -2.07 dB -12.82 dB 3:13 04-Passing Complexion
DR10 -2.07 dB -15.59 dB 5:14 05-Cables
DR10 -1.85 dB -14.55 dB 3:06 06-Bad Penny
DR10 -2.25 dB -15.59 dB 4:33 07-Pavement Saw
DR10 -1.61 dB -14.11 dB 7:07 08-Kerosene
DR11 -0.24 dB -14.54 dB 7:20 09-Steelworker
DR10 -1.82 dB -14.60 dB 2:45 10-Pigeon Kill
DR10 -1.54 dB -13.74 dB 2:08 11-Fish Fry
DR10 -1.48 dB -16.07 dB 7:39 12-Jordan, Minnesota
DR10 -1.77 dB -15.63 dB 4:32 13-Big Money
DR10 -1.70 dB -14.64 dB 2:19 14-I'm A Mess
DR11 -2.07 dB -15.68 dB 1:57 15-RIP

Number of tracks: 15
Official DR value: DR10

Samplerate: 44100 Hz
Channels: 2
Bits per sample: 16
Bitrate: 818 kbps
Codec: FLAC

[CUETools log; Date: 13.10.2015 12:23:02; Version: 2.1.4]
Pregap length 00:00:33.
[CTDB TOCID: UdO9Gn257rUzjNq7mWauQPHGDW4-] found.
Track | CTDB Status
1 | (1/1) Accurately ripped
2 | (1/1) Accurately ripped
3 | (1/1) Accurately ripped
4 | (1/1) Accurately ripped
5 | (1/1) Accurately ripped
6 | (1/1) Accurately ripped
7 | (1/1) Accurately ripped
8 | (1/1) Accurately ripped
9 | (1/1) Accurately ripped
10 | (1/1) Accurately ripped
11 | (1/1) Accurately ripped
12 | (1/1) Accurately ripped
13 | (1/1) Accurately ripped
14 | (1/1) Accurately ripped
15 | (1/1) Accurately ripped
[AccurateRip ID: 0021f19b-0187b96e-db0e7a0f] found.
Track [ CRC | V2 ] Status
01 [7114bdc1|17471d99] (0+2/2) Accurately ripped
02 [a1602c37|26906115] (0+2/2) Accurately ripped
03 [278c4e8f|d0563762] (0+2/2) Accurately ripped
04 [a7df8c4f|4fa477ed] (0+2/2) Accurately ripped
05 [1f47feb2|f5ff252f] (0+2/2) Accurately ripped
06 [78e529e6|400db577] (0+2/2) Accurately ripped
07 d75622e|0e8de9e4 (0+2/2) Accurately ripped
08 [404293bd|5e44101c] (0+2/2) Accurately ripped
09 [83133aee|7d144532] (0+2/2) Accurately ripped
10 610370e|806f5ee5 (0+2/2) Accurately ripped
11 [e7960f9f|1ca73997] (0+2/2) Accurately ripped
12 [f6f25099|a403632a] (0+2/2) Accurately ripped
13 [1d4cdd7d|eafe1458] (0+2/2) Accurately ripped
14 [ee197430|f5290665] (0+2/2) Accurately ripped
15 [34c27a2d|c8c5e48d] (0+2/2) Accurately ripped

Track Peak [ CRC32 ] [W/O NULL] [ LOG ]
-- 97,2 [D5C76D6B] [304F3EC1]
01 96,6 [926C5BEA] [DDB3A070] CRC32
02 84,8 [84F7D640] [115A7EA8] CRC32
03 76,7 [6C5E9697] [5E0A2CFE] CRC32
04 78,7 [F0C6753C] [970688E3] CRC32
05 78,7 [98CF089E] [7389353B] CRC32
06 80,8 [5097AA28] [7738E7B3] CRC32
07 77,1 [4B4A6F46] [0D75C266] CRC32
08 83,1 [A84B4C1F] [7D8B1585] CRC32
09 97,2 [91055BB6] [01B66F21] CRC32
10 81,0 [5AC3FC77] [03607F7E] CRC32
11 83,7 EACD219 [CDC7F990] CRC32
12 84,3 [8E37A951] [A0195E66] CRC32
13 81,5 [A840F779] [184C9B7D] CRC32
14 82,2 [DA5E2561] [CE1A5112] CRC32
15 78,7 [48001A7C] [59283D36] CRC32

Big Black - Death Wish (1993)

DOWNLOAD:
Buy Premium To Support Me & Get Resumable Support & Max Speed


Links are Interchangeable - No Password

Direct Download

Big Black - Death Wish (1993) Download via Hotfile Rapidshare Fileserve Megaupload & FileSonic, Big Black - Death Wish (1993) free torrent downloads included crack, serial, keygen.


Attention!Information

Members of Guest cannot leave comments.