Blackie and The Rodeo Kings - Let's Frolic (2006)

Download Now

Blackie and The Rodeo Kings - Let's Frolic (2006)

Blackie and The Rodeo Kings - Let's Frolic (2006)
EAC | Flac(Image) + Cue + Log & MP3 CBR 320Kbps
True North Records, TMD 430 | ~ 391 or 151 Mb | Scans(600dpi, jpg) -> 53 Mb
Alternative Rock / Country Rock

"Canadian singer/songwriter/guitarists Stephen Fearing, Colin Linden, and Tom Wilson all have successful solo careers, but sporadically put their individual projects on hold to record under the Blackie moniker. This album, the occasional band's fourth, comes only a few years following 2004's Bark, yet finds the trio -- backed by a quartet of similarly talented musicians on bass, drums, and keyboards -- in terrific form..."


Tracklist:

01. Silver Dreams
02. House of Soul
03. Let's Frolic
04. Loving Cup
05. I Give It Up Everyday
06. Crown of Thorns
07. Heaven for a Lonely Man
08. That's What I Like
09. Fool Who Can't Forget
10. Life Is Golden
11. Buried in Your Heart
12. October Lies
13. Under the Rain
14. Into the Grey

Exact Audio Copy V1.0 beta 3 from 29. August 2011

EAC extraction logfile from 25. March 2013, 14:01

Blackie and The Rodeo Kings / Let's Frolic

Used drive : ATAPI iHAS324 A Adapter: 0 ID: 1

Read mode : Secure
Utilize accurate stream : Yes
Defeat audio cache : Yes
Make use of C2 pointers : No

Read offset correction

: 6
Overread into Lead-In and Lead-Out : No
Fill up missing offset samples with silence : Yes
Delete leading and trailing silent blocks : No
Null samples used in CRC calculations : Yes
Used interface
: Native Win32 interface for Win NT & 2000

Used output format : Internal WAV Routines
Sample format : 44.100 Hz; 16 Bit; Stereo

TOC of the extracted CD Track | Start | Length | Start sector | End sector
--1 | 0:00.00 | 4:19.60 | 0 | 19484 2 | 4:19.60 | 4:00.25 | 19485 | 37509 3 | 8:20.10 | 5:22.35 | 37510 | 61694 4 | 13:42.45 | 4:52.02 | 61695 | 83596 5 | 18:34.47 | 3:49.28 | 83597 | 100799 6 | 22:24.00 | 5:11.17 | 100800 | 124141 7 | 27:35.17 | 3:29.18 | 124142 | 139834 8 | 31:04.35 | 3:12.52 | 139835 | 154286 9 | 34:17.12 | 5:25.45 | 154287 | 178706
10 | 39:42.57 | 5:05.43 | 178707 | 201624
11 | 44:48.25 | 3:30.40 | 201625 | 217414
12 | 48:18.65 | 5:15.22 | 217415 | 241061
13 | 53:34.12 | 6:47.20 | 241062 | 271606
14 | 60:21.32 | 3:38.33 | 271607 | 287989

Range status and errors

Selected range Filename D:\rips\Blackie and The Rodeo Kings - Let's Frolic.wav Peak level 98.8 %
Extraction speed 6.0 X
Range quality 100.0 %
Test CRC 777F84D9
Copy CRC 777F84D9
Copy OK

No errors occurred


AccurateRip summary

Track 1 accurately ripped (confidence 3) [CD991DC7] (AR v2)
Track 2 accurately ripped (confidence 3) [51F18ADE] (AR v2)
Track 3 accurately ripped (confidence 3) [5F6682D7] (AR v2)
Track 4 accurately ripped (confidence 3) [CFBE874C] (AR v2)
Track 5 accurately ripped (confidence 3) [51BF2DC1] (AR v2)
Track 6 accurately ripped (confidence 3) A60194A (AR v2)
Track 7 accurately ripped (confidence 3) [5BC0FE6A] (AR v2)
Track 8 accurately ripped (confidence 3) [0F881C99] (AR v2)
Track 9 accurately ripped (confidence 3) [EE03C949] (AR v2)
Track 10 accurately ripped (confidence 3) [AA331A6F] (AR v2)
Track 11 accurately ripped (confidence 3) [62B0F66F] (AR v2)
Track 12 accurately ripped (confidence 3) [8CD2E8FD] (AR v2)
Track 13 accurately ripped (confidence 3) [2FDA2D11] (AR v2)
Track 14 accurately ripped (confidence 3) [8CB765F1] (AR v2)

All tracks accurately ripped

End of status report

- CUETools DB Plugin V2.1.3

[CTDB TOCID: zkAiCdNnMxLrfLoLWgZtIK.wulU-] found, Submit result: zkAiCdNnMxLrfLoLWgZtIK.wulU- has been confirmed
[d7a6a043] (12/12) Accurately ripped

==== Log checksum 897B77E1FC98CB5266ED6A2C5922E4E05AFCDA52E3CA7B19FDA97172A5D2288C ====

foobar2000 1.2.9 / Dynamic Range Meter 1.1.1
log date: 2015-10-14 20:56:13

Analyzed: Blackie and The Rodeo Kings / Let's Frolic

DR Peak RMS Duration Track

DR6 -0.10 dB -8.02 dB 4:20 01-Silver Dreams
DR8 -0.10 dB -10.10 dB 4:00 02-House Of Soul
DR6 -0.10 dB -8.01 dB 5:22 03-Let's Frolic
DR7 -0.10 dB -9.01 dB 4:52 04-Loving Cup
DR7 -0.30 dB -8.67 dB 3:49 05-I Give It Up Everyday
DR6 -0.10 dB -9.03 dB 5:11 06-Crown Of Thorns
DR6 -0.10 dB -7.09 dB 3:29 07-Heaven For A Lonely Man
DR6 -0.30 dB -8.12 dB 3:13 08-That's What I Like
DR7 -0.10 dB -9.87 dB 5:26 09-The Fool Who Can't Forget
DR6 -0.40 dB -7.42 dB 5:06 10-Life Is Golden
DR5 -0.40 dB -7.20 dB 3:31 11-Buried In Your Heart
DR7 -0.10 dB -9.14 dB 5:15 12-October Lies
DR6 -0.10 dB -9.58 dB 6:47 13-Under The Rain
DR6 -0.30 dB -7.34 dB 3:38 14-Into The Grey

Number of tracks: 14
Official DR value: DR6

Samplerate: 44100 Hz
Channels: 2
Bits per sample: 16
Bitrate: 829 kbps
Codec: FLAC

[CUETools log; Date: 14.10.2015 20:56:03; Version: 2.1.4]
[CTDB TOCID: zkAiCdNnMxLrfLoLWgZtIK.wulU-] found.
Track | CTDB Status
1 | (7/7) Accurately ripped
2 | (7/7) Accurately ripped
3 | (7/7) Accurately ripped
4 | (7/7) Accurately ripped
5 | (7/7) Accurately ripped
6 | (7/7) Accurately ripped
7 | (7/7) Accurately ripped
8 | (7/7) Accurately ripped
9 | (7/7) Accurately ripped
10 | (7/7) Accurately ripped
11 | (7/7) Accurately ripped
12 | (7/7) Accurately ripped
13 | (7/7) Accurately ripped
14 | (7/7) Accurately ripped
[AccurateRip ID: 0020584d-0159e08a-b60eff0e] found.
Track [ CRC | V2 ] Status
01 67c2e2c|cd991dc7 (08+08/16) Accurately ripped
02 [73d2b441|51f18ade] (08+08/16) Accurately ripped
03 [059fbcf4|5f6682d7] (08+08/16) Accurately ripped
04 [97ef9f7d|cfbe874c] (08+08/16) Accurately ripped
05 bc60a9c|51bf2dc1 (08+08/16) Accurately ripped
06 [5ef333d7|ba60194a] (08+08/16) Accurately ripped
07 [15e58452|5bc0fe6a] (08+08/16) Accurately ripped
08 [2a7ccc09|0f881c99] (08+08/16) Accurately ripped
09 [0e606bfa|ee03c949] (08+08/16) Accurately ripped
10 [cf7e905d|aa331a6f] (08+08/16) Accurately ripped
11 [927d5690|62b0f66f] (08+08/16) Accurately ripped
12 a56d818|8cd2e8fd (07+08/15) Accurately ripped
13 [05c89be7|2fda2d11] (08+08/16) Accurately ripped
14 [544e796c|8cb765f1] (08+08/16) Accurately ripped

Track Peak [ CRC32 ] [W/O NULL] [ LOG ]
-- 98,8 [777F84D9] [1D1369CB] CRC32
01 98,8 F0BFA67 [E3B804B7]
02 98,8 [5046194A] [ED4D9A5F]
03 98,8 [F8358F55] [A6A8A0FB]
04 98,8 [723222BC] [ED23B988]
05 96,6 [6B01AB87] [9E1087B8]
06 98,8 [E32B4E8A] [50E3A427]
07 98,8 [F58747D7] [07F9C60C]
08 96,6 [5F5DD7BB] [7B6DDC2A]
09 98,8 [C8D79627] F952BCC
10 95,5 [C49105ED] [10434DE2]
11 95,5 21519F2 [70ABB49C]
12 98,8 [463C5B21] B883235
13 98,8 [D44CCFE4] [F82BF3CD]
14 96,6 [60281080] [7C046D80]

Blackie and The Rodeo Kings - Let's Frolic (2006)

All thanks go to transgressions



Download Blackie and The Rodeo Kings - Let's Frolic (2006):

DOWNLOAD:
Buy Premium To Support Me & Get Resumable Support & Max Speed


Links are Interchangeable - No Password

Direct Download

Tags: Blackie, Frolic

Blackie and The Rodeo Kings - Let's Frolic (2006) Download via Hotfile Rapidshare Fileserve Megaupload & FileSonic, Blackie and The Rodeo Kings - Let's Frolic (2006) free torrent downloads included crack, serial, keygen.


Attention!Information

Members of Guest cannot leave comments.